<?xml version="1.0" standalone="no"?>
<!DOCTYPE svg PUBLIC "-//W3C//DTD SVG 1.1//EN" "http://www.w3.org/Graphics/SVG/1.1/DTD/svg11.dtd" >
<svg>
<metadata>
Created by FontForge 20090914 at Fri Jun 20 18:14:26 2014
 By www-data
[c] Copyright 1993, 1999, Tobias Frere-Jones. Designed by Tobias Frere-Jones. Produced by The Font Bureau, Inc. All rights reserved. (c) Y2K2 Serge Lange. Cyrillic version for CGW Russian Edition
</metadata>
<defs>
<font id="GLInterstateRegularCondensed" horiz-adv-x="400" >
  <font-face 
    font-family="GLInterstateRegularCondensed"
    font-weight="400"
    font-stretch="normal"
    units-per-em="1000"
    panose-1="0 0 4 0 0 0 0 0 0 0"
    ascent="800"
    descent="-200"
    x-height="525"
    cap-height="700"
    bbox="-52 -193.001 1160 910"
    underline-thickness="20"
    underline-position="-123"
    unicode-range="U+0020-U+F002"
  />
<missing-glyph horiz-adv-x="500" 
d="M63 0v910h375v-910h-375zM125 63h250v785h-250v-785z" />
    <glyph glyph-name=".notdef" horiz-adv-x="500" 
d="M63 0v910h375v-910h-375zM125 63h250v785h-250v-785z" />
    <glyph glyph-name="space" unicode=" " horiz-adv-x="220" 
 />
    <glyph glyph-name="exclam" unicode="!" horiz-adv-x="248" 
d="M173 352l-16 -150h-66l-16 150v348h98v-348zM192 57c0 -19.333 -6.5 -35.5 -19.5 -48.5s-29.167 -19.5 -48.5 -19.5c-18.667 0 -34.667 6.66699 -48 20s-20 29.333 -20 48c0 19.333 6.5 35.666 19.5 48.999s29.167 20 48.5 20s35.5 -6.66699 48.5 -20
s19.5 -29.666 19.5 -48.999z" />
    <glyph glyph-name="quotedbl" unicode="&#x22;" horiz-adv-x="442" 
d="M380 700l-25 -327h-67l-25 327h117zM179 700l-25 -327h-67l-25 327h117z" />
    <glyph glyph-name="numbersign" unicode="#" horiz-adv-x="600" 
d="M555 160h-95v-160h-93v160h-134v-160h-93v160h-95v90h95v200h-95v90h95v160h93v-160h134v160h93v-160h95v-90h-95v-200h95v-90zM367 250v200h-134v-200h134z" />
    <glyph glyph-name="dollar" unicode="$" horiz-adv-x="443" 
d="M403 186c0 -47.333 -11.332 -86.998 -33.999 -118.998c-24.667 -33.333 -59.667 -54.333 -105 -63v-84h-98v84c-56 11.333 -102.333 47.666 -139 108.999l77 62c34 -54 72 -81 114 -81c56 0 84 29 84 87c0 30.667 -13 59 -39 85c-12 11.333 -38.333 30.666 -79 57.999
c-48 31.333 -81 58.333 -99 81c-27.333 34 -41 76 -41 126c0 40.667 10.5 75.667 31.5 105s51.167 48.666 90.5 57.999v86h98v-83c48.667 -8.66699 91 -39 127 -91l-72 -64c-16.667 22 -30.667 37.333 -42 46c-16.667 12 -36.334 18 -59.001 18c-48.667 0 -73 -24 -73 -72
c0 -28 11 -53 33 -75c10.667 -11.333 33.667 -28.333 69 -51c54 -35.333 91 -64.666 111 -87.999c30 -36 45 -80.667 45 -134z" />
    <glyph glyph-name="percent" unicode="%" horiz-adv-x="855" 
d="M347 494c0 -59.333 -10 -108 -30 -146c-26 -48 -66 -72 -120 -72c-98 0 -147 72 -147 216c0 60 9.66699 108.667 29 146c25.333 48.667 65.333 73 120 73c98.667 0 148 -72.333 148 -217zM653 700l-369 -700h-88l369 700h88zM805 207c0 -59.333 -10 -108 -30 -146
c-26 -48 -66 -72 -120 -72c-98 0 -147 72 -147 216c0 60 9.66699 108.667 29 146c25.333 48.667 65.333 73 120 73c98.667 0 148 -72.333 148 -217zM265 492c0 94 -22.333 141 -67 141c-43.333 0 -65 -46.333 -65 -139c0 -94.667 22 -142 66 -142s66 46.667 66 140zM723 205
c0 94 -22.333 141 -67 141c-43.333 0 -65 -46.333 -65 -139c0 -94.667 22 -142 66 -142s66 46.667 66 140z" />
    <glyph glyph-name="ampersand" unicode="&#x26;" horiz-adv-x="480" 
d="M471 0l-101.001 0.000976562l-35 59c-36 -46.667 -83 -70 -141 -70c-53.333 0 -93.666 15.333 -120.999 46s-41 73 -41 127c0 82.667 38 154.667 114 216l-17 30c-22.667 39.333 -37 66.666 -43 81.999c-10.667 26 -16 51.333 -16 76c0 44.667 15.333 80 46 106
s68.667 39 114 39c56.667 0 109 -18.667 157 -56l-47 -80c-41.333 29.333 -78.333 44 -111 44c-40.667 0 -61 -17 -61 -51c0 -32 11 -67 33 -105l126 -217c9.33301 30 18.333 65 27 105l80 -22c-18.667 -78.667 -36 -138 -52 -178zM287.999 139.001l-98 166
c-41.333 -43.333 -62 -87.333 -62 -132c0 -61.333 25 -92 75 -92c34.667 0 63 19.333 85 58z" />
    <glyph glyph-name="quotesingle" unicode="'" horiz-adv-x="241" 
d="M179 700l-25 -327h-67l-25 327h117z" />
    <glyph glyph-name="parenleft" unicode="(" horiz-adv-x="310" 
d="M274 -70l-53 -40c-54.667 64.667 -94.667 123.667 -120 177c-34 72 -51 149.667 -51 233c0 86.667 16.333 165.334 49 236.001c24 52 64.667 112 122 180l53 -40c-83.333 -112.667 -125 -236.334 -125 -371.001c0 -138 41.667 -263 125 -375z" />
    <glyph glyph-name="parenright" unicode=")" horiz-adv-x="310" 
d="M260 306c0 -86.667 -16.333 -165.334 -49 -236.001c-24 -52 -64.667 -112 -122 -180l-53 40c83.333 112.667 125 236.334 125 371.001c0 138 -41.667 263 -125 375l53 40c54.667 -64.667 94.667 -123.667 120 -177c34 -72 51 -149.667 51 -233z" />
    <glyph glyph-name="asterisk" unicode="*" horiz-adv-x="429" 
d="M396 462l-41 -71l-115 82l15 -140h-80l14 141l-115 -83l-41 71l128 57l-127 58l41 70l114 -84l-14 140h80l-15 -137l114 82l41 -71l-131 -58z" />
    <glyph glyph-name="plus" unicode="+" horiz-adv-x="453" 
d="M418 297h-143v-158h-97v158h-143v94h143v158h97v-158h143v-94z" />
    <glyph glyph-name="comma" unicode="," horiz-adv-x="232" 
d="M187 126l-67 -239h-65l13 239h119z" />
    <glyph glyph-name="hyphen" unicode="-" horiz-adv-x="300" 
d="M260 316h-220v100h220v-100z" />
    <glyph glyph-name="hyphen" unicode="&#x2010;" horiz-adv-x="300" 
d="M260 316h-220v100h220v-100z" />
    <glyph glyph-name="period" unicode="." horiz-adv-x="232" 
d="M186 59c0 -19.333 -6.83301 -35.833 -20.5 -49.5s-30.167 -20.5 -49.5 -20.5s-35.833 6.83301 -49.5 20.5s-20.5 30.167 -20.5 49.5s6.83301 36 20.5 50s30.167 21 49.5 21s35.833 -7 49.5 -21s20.5 -30.667 20.5 -50z" />
    <glyph glyph-name="slash" unicode="/" horiz-adv-x="350" 
d="M356 790l-265 -880h-97l265 880h97z" />
    <glyph glyph-name="zero" unicode="0" horiz-adv-x="499" 
d="M456 351c0 -94 -12.001 -171.333 -36.001 -232c-35.333 -86.667 -92.666 -130 -171.999 -130c-78.667 0 -135.334 43.333 -170.001 130c-23.333 60 -35 136.667 -35 230c0 92.667 12 169.667 36 231c34.667 87.333 91.334 131 170.001 131c79.333 0 136.333 -43 171 -129
c24 -60 36 -137 36 -231zM357.999 349c0 177.333 -37 266 -111 266c-70.667 0 -106 -88 -106 -264c0 -177.333 36.667 -266 110 -266c71.333 0 107 88 107 264z" />
    <glyph glyph-name="one" unicode="1" horiz-adv-x="275" 
d="M210 0h-97v551h-94v68c30.667 4 54 11 70 21c20 12.667 33.667 32.667 41 60h80v-700z" />
    <glyph glyph-name="two" unicode="2" horiz-adv-x="474" 
d="M420 0h-371.999c5.33301 102 23.333 182.333 54 241c26.667 50.667 73.667 103.667 141 159c47.333 38.667 71 79 71 121c0 61.333 -28.333 92 -85 92c-36 0 -75 -19.333 -117 -58l-61 71c55.333 56.667 116.666 85 183.999 85c56 0 99.833 -15.5 131.5 -46.5
s47.5 -74.5 47.5 -130.5c0 -44.667 -10.667 -83.667 -32 -117c-16.667 -27.333 -44.667 -57.333 -84 -90c-41.333 -34.667 -72 -67 -92 -97c-24 -36.667 -39.333 -80.667 -46 -132h260v-98z" />
    <glyph glyph-name="three" unicode="3" horiz-adv-x="465" 
d="M418 201c0 -62.667 -18.168 -113.664 -54.501 -152.997s-85.5 -59 -147.5 -59c-79.333 0 -144.333 37.333 -195 112l72 61c38.667 -52 81.334 -78 128.001 -78c32 0 56.667 11 74 33c16.667 20 25 46.333 25 79c0 84.667 -46 127 -138 127h-23v94h25
c36 0 65 9.66699 87 29s33 46.666 33 81.999c0 58.667 -28.333 88 -85 88c-30.667 0 -66.667 -19.667 -108 -59l-60 69c54.667 56.667 112 85 172 85c56.667 0 100.667 -15.833 132 -47.5s47 -75.834 47 -132.501c0 -74.667 -33 -126 -99 -154
c76.667 -24.667 115 -83.334 115 -176.001z" />
    <glyph glyph-name="four" unicode="4" horiz-adv-x="475" 
d="M442 169h-48v-169h-95v169h-271v77l273 454h93v-438h48v-93zM302 544l-53 -94l-68 -111l-49 -78h13c8 0.666992 14.667 1 20 1h39h95v182c0 -3.33301 1 30 3 100z" />
    <glyph glyph-name="five" unicode="5" horiz-adv-x="474" 
d="M431 238c0 -76.667 -17 -136.333 -51 -179c-37.333 -46.667 -93.333 -70 -168 -70c-67.333 0 -125.333 25.333 -174 76l55 74c38.667 -36.667 80 -55 124 -55c78 0 117 50 117 150c0 37.333 -7 68.333 -21 93c-17.333 30 -43.333 45 -78 45
c-38.667 0 -69 -16.667 -91 -50l-84 16l18 362h331v-96h-241l-9 -163c27.333 17.333 57.333 26 90 26c62.667 0 109.667 -23.333 141 -70c27.333 -40 41 -93 41 -159z" />
    <glyph glyph-name="six" unicode="6" horiz-adv-x="468" 
d="M435 216c0 -66.667 -17.001 -120.334 -51.001 -161.001c-36.667 -44 -87.667 -66 -153 -66c-68 0 -118 27.333 -150 82c-25.333 44 -38 103 -38 177c0 122 22.333 222.667 67 302c54 97.333 137 151 249 161v-92c-58 -7.33301 -106.333 -33.666 -145 -78.999
c-34.667 -41.333 -57 -92.333 -67 -153c26.667 30 63.334 45 110.001 45c57.333 0 102 -22.333 134 -67c29.333 -40 44 -89.667 44 -149zM339.999 214c0 35.333 -7.99902 64.335 -23.999 87.002c-18.667 25.333 -45 38 -79 38c-66 0 -99 -43.667 -99 -131
c0 -34.667 7.66699 -63.334 23 -86.001c17.333 -26.667 42.666 -40 75.999 -40c35.333 0 62 13.667 80 41c15.333 23.333 23 53.666 23 90.999z" />
    <glyph glyph-name="seven" unicode="7" horiz-adv-x="440" 
d="M402 600c-66 -76.667 -112.667 -171 -140 -283c-21.333 -87.333 -32 -193 -32 -317h-98c0 265.333 55 467 165 605h-267v95h372v-100z" />
    <glyph glyph-name="eight" unicode="8" horiz-adv-x="478" 
d="M437 211c0 -61.333 -16.667 -113.001 -50 -155.001c-36 -44.667 -84 -67 -144 -67c-62.667 0 -111.667 21 -147 63c-34 39.333 -51 91 -51 155c0 78.667 28.667 137.334 86 176.001c-47.333 30.667 -71 75.667 -71 135c0 56.667 16.333 103 49 139s77 54 133 54
s100.167 -17.667 132.5 -53s48.5 -81.333 48.5 -138c0 -60 -24 -105.667 -72 -137c57.333 -38 86 -95.333 86 -172zM327 519.999c0 64.667 -28.666 97 -85.999 97c-56.667 0 -85 -32.333 -85 -97c0 -28 7.33301 -50.333 22 -67c15.333 -18.667 36.666 -28 63.999 -28
s48.333 8.83301 63 26.5s22 40.5 22 68.5zM341.001 208.999c0 34.667 -7.66797 63 -23.001 85c-17.333 25.333 -42.666 38 -75.999 38c-34 0 -59.667 -12.333 -77 -37c-16 -22 -24 -50.667 -24 -86c0 -84 34.667 -126 104 -126c64 0 96 42 96 126z" />
    <glyph glyph-name="nine" unicode="9" horiz-adv-x="468" 
d="M425 452c0 -122 -22.332 -222.668 -66.999 -302.001c-54 -97.333 -137 -151 -249 -161v92c58.667 7.33301 107 33.333 145 78c34.667 40.667 57 92 67 154c-26.667 -30 -63.334 -45 -110.001 -45c-57.333 0 -102 22.333 -134 67c-29.333 40 -44 89.667 -44 149
c0 66.667 17 120.334 51 161.001c36.667 44 87.667 66 153 66c68 0 118 -27.333 150 -82c25.333 -44 38 -103 38 -177zM330.001 491.999c0 34.667 -7.66797 63.332 -23.001 85.999c-17.333 26.667 -42.666 40 -75.999 40c-35.333 0 -62 -13.667 -80 -41
c-15.333 -23.333 -23 -53.666 -23 -90.999c0 -35.333 8 -64.333 24 -87c18.667 -25.333 45 -38 79 -38c66 0 99 43.667 99 131z" />
    <glyph glyph-name="colon" unicode=":" horiz-adv-x="232" 
d="M186 465c0 -19.333 -6.83301 -35.833 -20.5 -49.5s-30.167 -20.5 -49.5 -20.5s-35.833 6.83301 -49.5 20.5s-20.5 30.167 -20.5 49.5s6.83301 36 20.5 50s30.167 21 49.5 21s35.833 -7 49.5 -21s20.5 -30.667 20.5 -50zM186 59c0 -19.333 -6.83301 -35.833 -20.5 -49.5
s-30.167 -20.5 -49.5 -20.5s-35.833 6.83301 -49.5 20.5s-20.5 30.167 -20.5 49.5s6.83301 36 20.5 50s30.167 21 49.5 21s35.833 -7 49.5 -21s20.5 -30.667 20.5 -50z" />
    <glyph glyph-name="semicolon" unicode=";" horiz-adv-x="232" 
d="M186 465c0 -19.333 -6.83301 -35.833 -20.5 -49.5s-30.167 -20.5 -49.5 -20.5s-35.833 6.83301 -49.5 20.5s-20.5 30.167 -20.5 49.5s6.83301 36 20.5 50s30.167 21 49.5 21s35.833 -7 49.5 -21s20.5 -30.667 20.5 -50zM177 126l-67 -239h-65l13 239h119z" />
    <glyph glyph-name="less" unicode="&#x3c;" horiz-adv-x="324" 
d="M278 90l-241 210v88l241 210v-120l-157 -133l157 -134v-121z" />
    <glyph glyph-name="equal" unicode="=" horiz-adv-x="500" 
d="M435 411h-370v95h370v-95zM435 182h-370v95h370v-95z" />
    <glyph glyph-name="greater" unicode="&#x3e;" horiz-adv-x="324" 
d="M287 300l-241 -210v120l157 133l-157 134v121l241 -210v-88z" />
    <glyph glyph-name="question" unicode="?" horiz-adv-x="451" 
d="M411 537c0 -43.333 -10 -80 -30 -110c-15.333 -23.333 -40 -46.333 -74 -69c-24.667 -16.667 -40.334 -36 -47.001 -58c-5.33301 -17.333 -8 -50 -8 -98h-101c0 62.667 5.33301 107.667 16 135c12.667 32.667 41.334 63.667 86.001 93c38 25.333 57 58 57 98
c0 56 -29.333 84 -88 84c-43.333 0 -90.666 -23 -141.999 -69l-62 73c63.333 63.333 132.666 95 207.999 95c56.667 0 101.667 -15 135 -45s50 -73 50 -129zM273 57c0 -19.333 -6.5 -35.5 -19.5 -48.5s-29.167 -19.5 -48.5 -19.5c-18.667 0 -34.667 6.66699 -48 20
s-20 29.333 -20 48c0 19.333 6.5 35.666 19.5 48.999s29.167 20 48.5 20s35.5 -6.66699 48.5 -20s19.5 -29.666 19.5 -48.999z" />
    <glyph glyph-name="at" unicode="@" horiz-adv-x="646" 
d="M601 360c0 -137.333 -39.001 -206.002 -117.001 -206.002c-38.667 0 -66 20 -82 60c-22.667 -40 -55.667 -60 -99 -60c-37.333 0 -66.666 14 -87.999 42c-19.333 25.333 -29 57 -29 95c0 36 10 66.167 30 90.5s47.667 36.5 83 36.5c33.333 0 61.333 -8.66699 84 -26v51
c0 39.333 -23 59 -69 59c-26.667 0 -51.334 -8 -74.001 -24l-22 49c32.667 22.667 66.667 34 102 34c81.333 0 122 -40 122 -120v-168c0 -42.667 15.667 -64 47 -64c38 0 57 50.667 57 152c0 80.667 -16.667 147.334 -50 200.001c-39.333 62 -97 93 -173 93
c-75.333 0 -132.666 -33.333 -171.999 -100c-32 -54 -48 -121.667 -48 -203s16.333 -149.666 49 -204.999c40 -67.333 97.667 -101 173 -101c37.333 0 70 7.66699 98 23l20 -47c-35.333 -21.333 -75.333 -32 -120 -32c-91.333 0 -162.333 39 -213 117
c-43.333 66.667 -65 148 -65 244s21.667 177.333 65 244c50.667 78 121.667 117 213 117s162 -37 212 -111c44 -64.667 66 -144.667 66 -240zM382.999 267.998v63c-20 20 -45.333 30 -76 30c-40 0 -60 -22.667 -60 -68c0 -52.667 21.333 -79 64 -79
c32.667 0 56.667 18 72 54z" />
    <glyph glyph-name="A" unicode="A" horiz-adv-x="494" 
d="M469 0h-107l-41 185h-152l-40 -185h-104l172 700h101zM301 278l-26 118c-4.66699 22 -14.667 73 -30 153c-5.33301 -28.667 -15.333 -79.667 -30 -153l-26 -118h112z" />
    <glyph glyph-name="B" unicode="B" horiz-adv-x="497" 
d="M452 211c0 -64.667 -16.333 -115.332 -49 -151.999c-34.667 -39.333 -83.667 -59 -147 -59h-186v700h176c60.667 0 108.167 -15.667 142.5 -47s51.5 -77.333 51.5 -138c0 -30.667 -7 -59.334 -21 -86.001s-34.333 -46.334 -61 -59.001
c31.333 -11.333 55.333 -32.666 72 -63.999c14.667 -27.333 22 -59 22 -95zM340 512.002c0 62 -30.332 93 -90.999 93h-82v-190h80c29.333 0 52.166 8.66699 68.499 26s24.5 41 24.5 71zM352.001 211.002c0 73.333 -35.667 110 -107 110h-78v-226h88
c64.667 0 97 38.667 97 116z" />
    <glyph glyph-name="C" unicode="C" horiz-adv-x="480" 
d="M437 166c-24.667 -118 -86.668 -176.999 -186.001 -176.999c-80 0 -137 43 -171 129c-23.333 59.333 -35 136.333 -35 231c0 93.333 12.333 170.666 37 231.999c35.333 86.667 92.666 130 171.999 130c102 0 162.667 -57 182 -171l-99 -25
c-12.667 64.667 -41.334 97 -86.001 97c-70 0 -105 -87 -105 -261c0 -62 5.66699 -114.667 17 -158c18.667 -70 50.334 -105 95.001 -105c26.667 0 47.334 11.667 62.001 35c8.66699 14 17.334 38 26.001 72z" />
    <glyph glyph-name="D" unicode="D" horiz-adv-x="507" 
d="M462 353c0 -92.667 -14 -169.333 -42 -230c-38 -82 -98 -123 -180 -123h-170v700h170c84 0 144.333 -39.333 181 -118c27.333 -58 41 -134.333 41 -229zM361 353.001c0 167.333 -41.333 251 -124 251h-69v-508h72c80.667 0 121 85.667 121 257z" />
    <glyph glyph-name="E" unicode="E" horiz-adv-x="445" 
d="M412 0h-342v700h329v-95h-231v-187h151v-94h-151v-229h244v-95z" />
    <glyph glyph-name="F" unicode="F" horiz-adv-x="428" 
d="M404 605h-236v-192h151v-94h-151v-319h-98v700h334v-95z" />
    <glyph glyph-name="G" unicode="G" horiz-adv-x="511" 
d="M453 205c0 -65.333 -15.999 -116.999 -47.999 -154.999c-34.667 -40.667 -84.334 -61 -149.001 -61c-78.667 0 -136 43.333 -172 130c-26 62 -39 139 -39 231c0 94 13 171.333 39 232c36 86 94.333 129 175 129c102.667 0 165 -57 187 -171l-98 -26
c-7.33301 31.333 -16.333 54.333 -27 69c-15.333 19.333 -37 29 -65 29c-44 0 -75.333 -35 -94 -105c-10.667 -42.667 -16 -95 -16 -157s6 -115 18 -159c20 -68.667 53 -103 99 -103c36 0 60.667 12.667 74 38c10.667 19.333 16 48.666 16 87.999v50h-78v96h178v-155z" />
    <glyph glyph-name="H" unicode="H" horiz-adv-x="532" 
d="M462 0h-98v324h-196v-324h-98v700h98v-280h196v280h98v-700z" />
    <glyph glyph-name="I" unicode="I" horiz-adv-x="248" 
d="M173 0h-98v700h98v-700z" />
    <glyph glyph-name="J" unicode="J" horiz-adv-x="438" 
d="M371 200c0 -140.667 -59.333 -211.001 -178 -211.001c-102 0 -161 60.333 -177 181l89 23c6 -33.333 14 -57.666 24 -72.999c14.667 -22.667 36 -34 64 -34c53.333 0 80 37 80 111v503h98v-500z" />
    <glyph glyph-name="K" unicode="K" horiz-adv-x="482" 
d="M462 0l-106 -0.000976562l-130 351l-58 -94v-257h-98v700h98v-177c0 -45.333 -0.666992 -82.666 -2 -111.999l56 99l115 190h111l-152 -246z" />
    <glyph glyph-name="L" unicode="L" horiz-adv-x="418" 
d="M392 0h-322v700h98v-604h224v-96z" />
    <glyph glyph-name="M" unicode="M" horiz-adv-x="612" 
d="M542 0h-96v282c0 79.333 0.666992 137 2 173c-12.667 -45.333 -30.667 -105.666 -54 -180.999l-90 -293l-90 293c-23.333 75.333 -41.333 135.666 -54 180.999c1.33301 -36 2 -93.667 2 -173v-282h-92v700h103l90 -291c18 -59.333 32.333 -110.333 43 -153
c22 79.333 36.667 131.333 44 156l90 288h102v-700z" />
    <glyph glyph-name="N" unicode="N" horiz-adv-x="532" 
d="M462 0h-80l-169 375l-49 115c1.33301 -34.667 2 -81.334 2 -140.001v-350h-96v700h98l151 -333l49 -115c-1.33301 34.667 -2 81.334 -2 140.001v308h96v-700z" />
    <glyph glyph-name="O" unicode="O" horiz-adv-x="513" 
d="M468 351c0 -92.667 -13.001 -170 -39.001 -232c-36.667 -86.667 -94.667 -130 -174 -130s-136.666 43 -171.999 129c-25.333 62 -38 139 -38 231c0 92.667 12.667 170 38 232c36 86.667 93.667 130 173 130c80 0 138 -43 174 -129c25.333 -60.667 38 -137.667 38 -231z
M367.999 349c0 61.333 -6.00098 114 -18.001 158c-18.667 70.667 -50.667 106 -96 106c-72.667 0 -109 -87.333 -109 -262c0 -61.333 6 -114 18 -158c18.667 -70.667 50.334 -106 95.001 -106c73.333 0 110 87.333 110 262z" />
    <glyph glyph-name="P" unicode="P" horiz-adv-x="478" 
d="M452 496c0 -62.667 -18.167 -113.501 -54.5 -152.501s-85.5 -58.5 -147.5 -58.5h-82v-285h-98v700h185c61.333 0 109.5 -18.667 144.5 -56s52.5 -86.666 52.5 -147.999zM351 492.999c0 74 -34.333 111 -103 111h-80v-224h83c32.667 0 58 11 76 33c16 20 24 46.667 24 80z
" />
    <glyph glyph-name="Q" unicode="Q" horiz-adv-x="513" 
d="M468 350c0 -130.667 -25.332 -227.667 -75.999 -291l35 -55l-69 -40l-28 43c-22.667 -12 -47.334 -18 -74.001 -18c-80 0 -137.667 43.333 -173 130c-25.333 60.667 -38 137.667 -38 231s12.667 170.666 38 231.999c35.333 86 93 129 173 129s138 -43 174 -129
c25.333 -61.333 38 -138.666 38 -231.999zM368.001 350c0 62 -5.66602 114.666 -16.999 157.999c-18.667 70 -50.334 105 -95.001 105c-44 0 -75.333 -35.333 -94 -106c-11.333 -43.333 -17 -95.666 -17 -156.999c0 -62 5.66699 -115 17 -159
c18.667 -71.333 50 -107 94 -107c8.66699 0 16 1.33301 22 4l-48 73l69 40l37 -57c21.333 45.333 32 114 32 206z" />
    <glyph glyph-name="R" unicode="R" horiz-adv-x="510" 
d="M464 0h-109.001l-106 305h-81v-305h-98v700h197c60.667 0 108.334 -17.167 143.001 -51.5s52 -81.833 52 -142.5c0 -94 -36.667 -155.333 -110 -184zM360.999 503c0 68 -34 102 -102 102h-91v-206h91c68 0 102 34.667 102 104z" />
    <glyph glyph-name="S" unicode="S" horiz-adv-x="443" 
d="M403 181c0 -59.333 -16.999 -106.169 -50.999 -140.502s-80.667 -51.5 -140 -51.5c-78.667 0 -140.334 38 -185.001 114l77 62c32.667 -52 70.667 -78 114 -78c56 0 84 29.667 84 89c0 32 -12.667 61.333 -38 88c-14 14 -40.333 34 -79 60
c-47.333 30.667 -80.666 58.667 -99.999 84c-27.333 35.333 -41 78 -41 128c0 53.333 16.167 95.833 48.5 127.5s75.166 47.5 128.499 47.5c70 0 126.667 -31.667 170 -95l-72 -64c-30 40.667 -63.667 61 -101 61c-48.667 0 -73 -24.667 -73 -74
c0 -29.333 10.667 -55.333 32 -78c12.667 -13.333 36 -31 70 -53c52 -33.333 89 -63.666 111 -90.999c30 -37.333 45 -82.666 45 -135.999z" />
    <glyph glyph-name="T" unicode="T" horiz-adv-x="422" 
d="M389 604h-129v-604h-98v604h-129v96h356v-96z" />
    <glyph glyph-name="U" unicode="U" horiz-adv-x="526" 
d="M459 208c0 -64.667 -16.332 -116.666 -48.999 -155.999c-34.667 -42 -83.667 -63 -147 -63c-60.667 0 -109 20.667 -145 62c-34 39.333 -51 89.666 -51 150.999v498h98v-494c0 -34 7.66699 -61.333 23 -82c17.333 -24 42.333 -36 75 -36
c33.333 0 58.666 11.667 75.999 35c15.333 20.667 23 48 23 82v495h97v-492z" />
    <glyph glyph-name="V" unicode="V" horiz-adv-x="484" 
d="M459 700l-180.999 -700h-73l-180 700h107l81 -351c8.66699 -38 19 -87.333 31 -148c15.333 76.667 25.666 126 30.999 148l80 351h104z" />
    <glyph glyph-name="W" unicode="W" horiz-adv-x="618" 
d="M590 700l-126.001 -700h-75l-48 245c-17.333 89.333 -28.666 154.333 -33.999 195c-4.66699 -39.333 -15.667 -103.333 -33 -192l-48 -248h-73l-125 700h98l42 -252c18.667 -112 29.667 -183 33 -213c4 30.667 14.667 101.334 32 212.001l40 253h75l41 -253
c18.667 -116.667 29.667 -187.334 33 -212.001c11.333 82 22 153 32 213l41 252h95z" />
    <glyph glyph-name="X" unicode="X" horiz-adv-x="465" 
d="M437 0h-108l-53 136c-24 61.333 -39 102.666 -45 123.999c-8 -27.333 -23 -68.666 -45 -123.999l-53 -136h-105l153 360l-143 340h108l43 -111c24 -62 39 -104 45 -126c9.33301 30.667 24.333 72.667 45 126l43 111h105l-143 -337z" />
    <glyph glyph-name="Y" unicode="Y" horiz-adv-x="493" 
d="M471 700l-172.999 -386.999v-313h-98v310l-178 390h111l62 -146c27.333 -64.667 45.666 -113.334 54.999 -146.001c8.66699 32.667 26.667 81.667 54 147l60 145h107z" />
    <glyph glyph-name="Z" unicode="Z" horiz-adv-x="460" 
d="M413 0l-371.999 0.000976562v91l200 394c23.333 46 46 88 68 126c-28 -1.33301 -61.667 -2 -101 -2h-141v91h340v-91l-201 -395c-18.667 -36.667 -41.334 -78.334 -68.001 -125.001c28 1.33301 61.667 2 101 2h174v-91z" />
    <glyph glyph-name="bracketleft" unicode="[" horiz-adv-x="325" 
d="M274 -100h-199v800h199v-82h-106v-636h106v-82z" />
    <glyph glyph-name="backslash" unicode="\" horiz-adv-x="350" 
d="M356 -90h-97l-265 880h97z" />
    <glyph glyph-name="bracketright" unicode="]" horiz-adv-x="325" 
d="M250 -100h-199v79h106v642h-106v79h199v-800z" />
    <glyph glyph-name="asciicircum" unicode="^" horiz-adv-x="444" 
d="M414 382h-107l-86 202l-86 -202h-105l152 318h80z" />
    <glyph glyph-name="underscore" unicode="_" horiz-adv-x="350" 
d="M350 -170h-350v88h350v-88z" />
    <glyph glyph-name="grave" unicode="`" 
d="M297 595h-82l-145 160h135z" />
    <glyph glyph-name="a" unicode="a" horiz-adv-x="434" 
d="M378 0h-96v36c-27.333 -31.333 -63.333 -47 -108 -47c-46.667 0 -83 18.333 -109 55c-22.667 32 -34 72.333 -34 121c0 54 15 96.167 45 126.5s72 45.5 126 45.5c29.333 0 56 -5.66699 80 -17v51c0 50 -22.667 75 -68 75c-32 0 -66.333 -11 -103 -33l-41 73
c50 33.333 100.333 50 151 50c57.333 0 97.833 -11.833 121.5 -35.5s35.5 -64.167 35.5 -121.5v-379zM282 125l-0.000976562 105c-22 13.333 -48.333 20 -79 20c-50.667 0 -76 -27.667 -76 -83c0 -60.667 22 -91 66 -91c40.667 0 70.334 16.333 89.001 49z" />
    <glyph glyph-name="b" unicode="b" horiz-adv-x="448" 
d="M409 257c0 -71.333 -10.002 -129.667 -30.002 -175c-28 -62 -73 -93 -135 -93c-35.333 0 -65.666 13 -90.999 39v-28h-96v679l96 50v-239c28.667 30.667 61.334 46 98.001 46c105.333 0 158 -93 158 -279zM311.998 251.999c0 129.333 -27.001 194 -81.001 194
c-32.667 0 -58.667 -16 -78 -48v-272c20.667 -31.333 48.334 -47 83.001 -47c50.667 0 76 57.667 76 173z" />
    <glyph glyph-name="c" unicode="c" horiz-adv-x="410" 
d="M375 82c-39.333 -62 -90.334 -93 -153.001 -93c-66.667 0 -115.667 30.333 -147 91c-24 46.667 -36 106.667 -36 180c0 76.667 12 138 36 184c31.333 61.333 81.666 92 150.999 92c62.667 0 112 -30.667 148 -92l-69 -60c-25.333 40 -52.666 60 -81.999 60
c-58 0 -87 -60.667 -87 -182c0 -120.667 30 -181 90 -181c28.667 0 55.334 19.333 80.001 58z" />
    <glyph glyph-name="d" unicode="d" horiz-adv-x="448" 
d="M391 0l-95.998 0.000976562v35c-28.667 -30.667 -61.334 -46 -98.001 -46c-105.333 0 -158 93 -158 279c0 71.333 10 129.666 30 174.999c28 62 73 93 135 93c35.333 0 65.666 -13 90.999 -39v182l96 50v-729zM295.002 127.001l0.000976562 272
c-20.667 31.333 -48.334 47 -83.001 47c-50.667 0 -76 -57.667 -76 -173c0 -129.333 27 -194 81 -194c32.667 0 58.667 16 78 48z" />
    <glyph glyph-name="e" unicode="e" horiz-adv-x="450" 
d="M411 264c0 -16 -0.333008 -27.333 -1 -34h-275c6 -99.333 39 -149 99 -149c35.333 0 67 13 95 39l59 -61c-42 -46.667 -94 -70 -156 -70c-68 0 -119 29.667 -153 89c-26.667 47.333 -40 108 -40 182c0 74.667 12.667 135.667 38 183c32 62 81.667 93 149 93
c66 0 115 -30.333 147 -91c25.333 -48 38 -108.333 38 -181zM313 313c-1.33301 34 -8 63 -20 87c-15.333 30.667 -38.333 46 -69 46c-50.667 0 -80 -44.333 -88 -133h177z" />
    <glyph glyph-name="f" unicode="f" horiz-adv-x="291" 
d="M278 636c-12 4 -25.333 6 -40 6c-40.667 0 -61 -18.667 -61 -56v-61h86v-90h-86v-435h-96v435h-53v90h53v74c0 38.667 10.167 69.5 30.5 92.5s49.5 34.5 87.5 34.5c32 0 58.333 -3.33301 79 -10v-80z" />
    <glyph glyph-name="g" unicode="g" horiz-adv-x="448" 
d="M391 46c0 -77.333 -16.332 -134.332 -48.999 -170.999s-87.667 -59.334 -165 -68.001l-27 77c54 6.66699 91 19.334 111 38.001c22.667 21.333 34 58 34 110v4c-28 -31.333 -60.667 -47 -98 -47c-105.333 0 -158 93 -158 279c0 71.333 10 129.666 30 174.999
c28 62 73 93 135 93c35.333 0 65.666 -13 90.999 -39v28h96v-479zM295.001 127.001l0.000976562 272c-20.667 31.333 -48.334 47 -83.001 47c-50.667 0 -76 -57.667 -76 -173c0 -129.333 27 -194 81 -194c32.667 0 58.667 16 78 48z" />
    <glyph glyph-name="h" unicode="h" horiz-adv-x="446" 
d="M392 0h-96v323c0 36 -2.66699 62.333 -8 79c-10 28.667 -29 43 -57 43c-32.667 0 -58.667 -16 -78 -48v-397h-96v679l96 50v-240c24.667 31.333 58.667 47 102 47c54.667 0 92.667 -20.333 114 -61c15.333 -30 23 -75.333 23 -136v-339z" />
    <glyph glyph-name="i" unicode="i" horiz-adv-x="220" 
d="M169 666c0 -16 -5.83301 -29.833 -17.5 -41.5s-25.5 -17.5 -41.5 -17.5c-16.667 0 -30.834 5.66699 -42.501 17s-17.5 25.333 -17.5 42s5.83301 30.834 17.5 42.501s25.834 17.5 42.501 17.5s30.667 -5.83301 42 -17.5s17 -25.834 17 -42.501zM158 0h-96v525h96v-525z
" />
    <glyph glyph-name="j" unicode="j" horiz-adv-x="220" 
d="M169 666c0 -16 -5.83301 -29.833 -17.5 -41.5s-25.5 -17.5 -41.5 -17.5c-16.667 0 -30.834 5.66699 -42.501 17s-17.5 25.333 -17.5 42s5.83301 30.834 17.5 42.501s25.834 17.5 42.501 17.5s30.667 -5.83301 42 -17.5s17 -25.834 17 -42.501zM158 19
c0 -64 -13 -112.665 -39 -145.998c-28 -34.667 -73 -56.667 -135 -66l-25 78c38.667 9.33301 65.5 23.166 80.5 41.499s22.5 47.166 22.5 86.499v512h96v-506z" />
    <glyph glyph-name="k" unicode="k" horiz-adv-x="424" 
d="M397 0l-104.999 0.000976562l-87 245l-52 -83v-162h-96v679l96 50v-315c0 -40.667 -0.666992 -78.334 -2 -113.001c7.33301 16 21.666 43 42.999 81l79 143h109l-113 -182z" />
    <glyph glyph-name="l" unicode="l" horiz-adv-x="220" 
d="M158 0h-96v679l96 50v-729z" />
    <glyph glyph-name="m" unicode="m" horiz-adv-x="665" 
d="M611 0h-96v323c0 40.667 -1.33301 66.667 -4 78c-6.66699 29.333 -23.667 44 -51 44c-32.667 0 -58.667 -16 -78 -48v-397h-96v323c0 40.667 -1.33301 66.667 -4 78c-6.66699 29.333 -23.667 44 -51 44c-32.667 0 -58.667 -16 -78 -48v-397h-96v525h96v-36
c24.667 31.333 57.334 47 98.001 47c49.333 0 84.666 -18.667 105.999 -56c32.667 37.333 73.667 56 123 56c56 0 93.333 -22 112 -66c12.667 -28.667 19 -75.667 19 -141v-329z" />
    <glyph glyph-name="n" unicode="n" horiz-adv-x="446" 
d="M392 0h-96v323c0 36 -2.66699 62.333 -8 79c-10 28.667 -29 43 -57 43c-32.667 0 -58.667 -16 -78 -48v-397h-96v525h96v-36c24.667 31.333 58.667 47 102 47c54.667 0 92.667 -20.333 114 -61c15.333 -30 23 -75.333 23 -136v-339z" />
    <glyph glyph-name="o" unicode="o" horiz-adv-x="456" 
d="M417 264c0 -76 -13 -137.666 -39 -184.999c-32.667 -60 -83.667 -90 -153 -90c-67.333 0 -117 30 -149 90c-24.667 47.333 -37 107.666 -37 180.999c0 76.667 12.333 138.334 37 185.001c32.667 60.667 83.667 91 153 91c68 0 118 -30 150 -90
c25.333 -46.667 38 -107.334 38 -182.001zM320 262.001c0 121.333 -30.999 182 -92.999 182c-60.667 0 -91 -60.667 -91 -182c0 -120.667 30.667 -181 92 -181c35.333 0 60.666 23 75.999 69c10.667 30.667 16 68 16 112z" />
    <glyph glyph-name="p" unicode="p" horiz-adv-x="448" 
d="M409 257c0 -71.333 -10.002 -129.667 -30.002 -175c-28 -62 -73 -93 -135 -93c-35.333 0 -65.666 13 -90.999 39v-171l-96 -50v718h96v-35c28.667 30.667 61.334 46 98.001 46c105.333 0 158 -93 158 -279zM311.998 251.999c0 129.333 -27.001 194 -81.001 194
c-32.667 0 -58.667 -16 -78 -48v-272c20.667 -31.333 48.334 -47 83.001 -47c50.667 0 76 57.667 76 173z" />
    <glyph glyph-name="q" unicode="q" horiz-adv-x="448" 
d="M391 -143l-95.998 -49.999v228c-28.667 -30.667 -61.334 -46 -98.001 -46c-105.333 0 -158 93 -158 279c0 71.333 10 129.666 30 174.999c28 62 73 93 135 93c35.333 0 65.666 -13 90.999 -39v28h96v-668zM295.002 127.001l0.000976562 272
c-20.667 31.333 -48.334 47 -83.001 47c-50.667 0 -76 -57.667 -76 -173c0 -129.333 27 -194 81 -194c32.667 0 58.667 16 78 48z" />
    <glyph glyph-name="r" unicode="r" horiz-adv-x="336" 
d="M318 518l-23 -96c-18.667 10.667 -41 16 -67 16c-31.333 0 -56.333 -13.667 -75 -41v-397h-96v525h96v-36c24.667 31.333 55.667 47 93 47c28.667 0 52.667 -6 72 -18z" />
    <glyph glyph-name="s" unicode="s" horiz-adv-x="389" 
d="M351 144c0 -50 -14.5 -88.334 -43.5 -115.001s-68.833 -40 -119.5 -40c-56.667 0 -110.334 18.667 -161.001 56l37 80c48 -30 88.667 -45 122 -45c46 0 69 19 69 57c0 17.333 -7.66699 33 -23 47c-12 10.667 -38.667 28.334 -80 53.001
c-36 20.667 -61.667 40.334 -77 59.001c-20 24.667 -30 56 -30 94c0 46.667 13.333 82.667 40 108s63.334 38 110.001 38c52.667 0 100.334 -16.333 143.001 -49l-39 -81c-36.667 26 -72 39 -106 39c-34.667 0 -52 -15.333 -52 -46c0 -19.333 10.333 -37.333 31 -54
c7.33301 -6 25.666 -17.667 54.999 -35c45.333 -26.667 76 -49.334 92 -68.001c21.333 -25.333 32 -58 32 -98z" />
    <glyph glyph-name="t" unicode="t" horiz-adv-x="319" 
d="M276 102l-10.999 -89c-24.667 -16 -53.334 -24 -86.001 -24c-67.333 0 -101 44.667 -101 134v312h-57v90h57v153l96 51v-204h101v-90h-101v-303c0 -34.667 13.333 -52 40 -52c24 0 44.667 7.33301 62 22z" />
    <glyph glyph-name="u" unicode="u" horiz-adv-x="446" 
d="M389 0h-96v36c-24.667 -31.333 -58.667 -47 -102 -47c-54 0 -91.667 20.667 -113 62c-16 30 -24 75 -24 135v339h96v-323c0 -36 2.66699 -62.333 8 -79c10 -28.667 29 -43 57 -43c32.667 0 58.667 16 78 48v397h96v-525z" />
    <glyph glyph-name="v" unicode="v" horiz-adv-x="416" 
d="M396 525l-131.001 -525.001h-111l-132 525h98l64 -283c13.333 -58 22.333 -102 27 -132c6.66699 40.667 15.334 85.334 26.001 134.001l61 281h98z" />
    <glyph glyph-name="w" unicode="w" horiz-adv-x="597" 
d="M573 525l-108 -525h-90l-54 253c-7.33301 35.333 -15.333 78.333 -24 129c-7.33301 -47.333 -15.333 -91.333 -24 -132l-53 -250h-90l-106 525h92l39 -224c10 -57.333 17.667 -108.333 23 -153c7.33301 47.333 17 99 29 155l48 222h87l50 -222
c12 -53.333 22 -105 30 -155c6.66699 54 14 105 22 153l37 224h92z" />
    <glyph glyph-name="x" unicode="x" horiz-adv-x="441" 
d="M414 0h-108.999l-48 111c-4 8.66699 -15.667 38.667 -35 90c-12.667 -33.333 -25.334 -64.333 -38.001 -93l-48 -108h-109l134 274l-123 251h108l38 -88c16.667 -38 28.667 -68 36 -90c6.66699 20.667 19 51.667 37 93l37 85h109l-122 -251z" />
    <glyph glyph-name="y" unicode="y" horiz-adv-x="434" 
d="M412 525l-207 -709.999h-94l57 185l-146 525h102l61 -249c13.333 -54.667 23.666 -102.334 30.999 -143.001c6.66699 36.667 17.334 84.667 32.001 144l62 248h102z" />
    <glyph glyph-name="z" unicode="z" horiz-adv-x="407" 
d="M361 0h-325.001v82l175 281l49 74c-12.667 -0.666992 -43.667 -1 -93 -1h-114v89h308v-81l-170 -282c-21.333 -35.333 -37.666 -60 -48.999 -74c12.667 0.666992 43.667 1 93 1h126v-89z" />
    <glyph glyph-name="braceleft" unicode="{" horiz-adv-x="345" 
d="M309 -110c-75.333 0 -128.333 16.6689 -159 50.002c-28.667 31.333 -43 85 -43 161v68c0 59.333 -16.667 89 -50 89h-26v84h26c33.333 0 50 29.667 50 89v69c0 76 14.833 130.167 44.5 162.5s82.167 48.5 157.5 48.5v-70c-42 -4.66699 -70.333 -17.334 -85 -38.001
c-13.333 -18 -20 -48.667 -20 -92v-55c0 -42 -4.33301 -73.333 -13 -94c-11.333 -29.333 -33.666 -50 -66.999 -62c33.333 -12 55.666 -32.667 66.999 -62c8.66699 -20.667 13 -52 13 -94v-54c0 -43.333 6.66699 -74 20 -92c14.667 -20.667 43 -33.334 85 -38.001v-70z" />
    <glyph glyph-name="bar" unicode="|" horiz-adv-x="246" 
d="M168 -185h-90v985h90v-985z" />
    <glyph glyph-name="braceright" unicode="}" horiz-adv-x="345" 
d="M314 259l-26 -0.00195312c-33.333 0 -50 -29.667 -50 -89v-69c0 -76 -14.333 -129.667 -43 -161c-30.667 -33.333 -83.667 -50 -159 -50v70c42 4.66699 70.333 17.334 85 38.001c13.333 18 20 48.667 20 92v55c0 42 4.33301 73.333 13 94
c11.333 29.333 33.666 50 66.999 62c-33.333 12 -55.666 32.667 -66.999 62c-8.66699 20.667 -13 52 -13 94v54c0 43.333 -6.66699 74 -20 92c-14.667 20.667 -43 33.334 -85 38.001v70c75.333 0 128.333 -16.667 159 -50c28.667 -31.333 43 -85 43 -161v-68
c0 -59.333 16.667 -89 50 -89h26v-84z" />
    <glyph glyph-name="asciitilde" unicode="~" horiz-adv-x="562" 
d="M520 424c-36.667 -94 -87.666 -141 -152.999 -141c-30.667 0 -62.667 11.333 -96 34c-38.667 26.667 -66.334 40 -83.001 40c-18 0 -33.667 -8.66699 -47 -26c-5.33301 -8 -14.333 -24.667 -27 -50l-72 37c36.667 94 87.667 141 153 141c31.333 0 63.333 -11.333 96 -34
c38.667 -26.667 66 -40 82 -40c18 0 33.667 8.66699 47 26c6.66699 8 16 24.667 28 50z" />
    <glyph glyph-name="nonbreakingspace" unicode="&#xa0;" horiz-adv-x="110" 
 />
    <glyph glyph-name="exclamdown" unicode="&#xa1;" horiz-adv-x="248" 
d="M192 643c0 -19.333 -6.5 -35.666 -19.5 -48.999s-29.167 -20 -48.5 -20s-35.5 6.66699 -48.5 20s-19.5 29.666 -19.5 48.999s6.5 35.5 19.5 48.5s29.167 19.5 48.5 19.5s35.5 -6.5 48.5 -19.5s19.5 -29.167 19.5 -48.5zM173 0h-98v348l16 150h66l16 -150v-348z" />
    <glyph glyph-name="cent" unicode="&#xa2;" horiz-adv-x="410" 
d="M375 176c-29.333 -46.667 -65.334 -76 -108.001 -88v-99h-99v102c-86 27.333 -129 115 -129 263c0 150 43 239 129 267v90h99v-86c42.667 -9.33301 78.334 -38.333 107.001 -87l-68 -59c-25.333 41.333 -53 62 -83 62c-58 0 -87 -61.667 -87 -185
c0 -122.667 30 -184 90 -184c28 0 54.667 20.333 80 61z" />
    <glyph glyph-name="sterling" unicode="&#xa3;" horiz-adv-x="469" 
d="M446 636l-59.999 -73c-22.667 19.333 -41 32 -55 38c-18 8 -40.333 12 -67 12c-24 0 -43.167 -7.33301 -57.5 -22s-21.5 -34 -21.5 -58c0 -29.333 8 -62.333 24 -99c12 -27.333 19.667 -48.666 23 -63.999h114v-87h-109c-3.33301 -64.667 -27.333 -129.334 -72 -194.001
h267v-89h-372v102c28.667 30.667 49 58 61 82c13.333 28 20.666 61 21.999 99h-83v87h73c-7.33301 19.333 -14.333 36 -21 50c-18 36.667 -27 74.667 -27 114c0 56 16.167 99.5 48.5 130.5s76.5 46.5 132.5 46.5c67.333 0 127.333 -25 180 -75z" />
    <glyph glyph-name="currency" unicode="&#xa4;" horiz-adv-x="465" 
d="M139 390c-0.666992 -8.66699 -1.00195 -21.667 -1.00195 -39c0 -16.667 0.333008 -29 1 -37h176v-77h-168c17.333 -102.667 52 -154 104 -154c44.667 0 75.667 37.333 93 112l91 -29c-14.667 -58.667 -35 -101.334 -61 -128.001c-30.667 -32.667 -74 -49 -130 -49
c-77.333 0 -132.666 43.667 -165.999 131c-23.333 60 -35 136.333 -35 229c0 91.333 12.333 168 37 230c34.667 88 90.334 132 167.001 132c100.667 0 163 -57 187 -171l-94 -26c-10 34.667 -19.333 58.334 -28 71.001c-15.333 21.333 -37.333 32 -66 32
c-50 0 -83 -50 -99 -150h168v-77h-176z" />
    <glyph glyph-name="yen" unicode="&#xa5;" horiz-adv-x="463" 
d="M441 700l-160 -402v-88h102v-89h-102v-121h-94v121h-102v89h102v85l-165 405h110l52 -146c26 -72 43 -124 51 -156c8 30.667 24.667 83 50 157l50 145h106z" />
    <glyph glyph-name="brokenbar" unicode="&#xa6;" horiz-adv-x="750" 
d="M730 346l-178.999 -124.998c-4 -2 -7.33301 -3 -10 -3c-2 0 -4 0.333008 -6 1c-6.66699 5.33301 -8.66699 12 -6 20l19 61h-127v-137l63 20c6.66699 2 12.667 0 18 -6c2.66699 -4.66699 1.66699 -10.334 -3 -17.001l-124 -178l-126 178c-2 4.66699 -3 8.66699 -3 12
c0 2 0.333008 3.66699 1 5c4 5.33301 8.33301 8 13 8c2.66699 0 5 -0.666992 7 -2l62 -20v137h-127l19 -61c2 -7.33301 -0.333008 -14 -7 -20c-1.33301 -0.666992 -3 -1 -5 -1c-3.33301 0 -7.33301 1 -12 3l-177 125l179 125c6 4 11 5 15 3c6.66699 -6 9 -12.333 7 -19
l-19 -63h127v134l-62 -19c-2 -0.666992 -4 -1 -6 -1c-4.66699 0 -9.33398 2.66699 -14.001 8c-0.666992 2 -1 4 -1 6c0 3.33301 1 7 3 11l126 177l124 -178c4 -6 5 -11.333 3 -16c-5.33301 -6.66699 -11.333 -9 -18 -7l-63 19v-134h127l-19 63c-2 7.33301 0 13.666 6 18.999
c4.66699 2 10 1 16 -3z" />
    <glyph glyph-name="section" unicode="&#xa7;" horiz-adv-x="507" 
d="M462 261c0 -63.333 -30.999 -113.333 -92.999 -150c34 -30 51 -67.333 51 -112c0 -52 -16 -92.167 -48 -120.5s-74.667 -42.5 -128 -42.5c-58.667 0 -113.667 19 -165 57l53 76c36.667 -26.667 75 -40 115 -40c46 0 69 21.333 69 64c0 22 -13 42.333 -39 61
c-11.333 8 -33.666 20.333 -66.999 37c-62 30.667 -103.667 57.667 -125 81c-26.667 29.333 -40 67.333 -40 114c0 63.333 31 113.333 93 150c-34 30 -51 67.333 -51 112c0 52 16.333 92.667 49 122c31.333 27.333 73.666 41 126.999 41c58.667 0 113.667 -19 165 -57
l-53 -76c-36.667 26.667 -75 40 -115 40c-46 0 -69 -21.333 -69 -64c0 -22 13 -42.333 39 -61c11.333 -8 33.666 -20.333 66.999 -37c62 -30.667 103.667 -57.667 125 -81c26.667 -29.333 40 -67.333 40 -114zM359.001 252c0 29.333 -11.667 54 -35 74
c-12 9.33301 -37 23.666 -75 42.999l-32 16c-46 -22 -69 -52 -69 -90c0 -29.333 11.667 -54 35 -74c12 -9.33301 37 -23.666 75 -42.999l32 -16c46 22 69 52 69 90z" />
    <glyph glyph-name="dieresis" unicode="&#xa8;" 
d="M351 657c0 -16.667 -6.16504 -31.165 -18.498 -43.498s-26.833 -18.5 -43.5 -18.5s-31.334 6.16699 -44.001 18.5s-19 26.833 -19 43.5c0 17.333 6.16699 32.166 18.5 44.499s27.166 18.5 44.499 18.5c16.667 0 31.167 -6.33301 43.5 -19s18.5 -27.334 18.5 -44.001z
M174.002 657.002c0 -16.667 -6.16504 -31.165 -18.498 -43.498s-26.833 -18.5 -43.5 -18.5s-31.334 6.16699 -44.001 18.5s-19 26.833 -19 43.5c0 17.333 6.16699 32.166 18.5 44.499s27.166 18.5 44.499 18.5c16.667 0 31.167 -6.33301 43.5 -19s18.5 -27.334 18.5 -44.001
z" />
    <glyph glyph-name="copyright" unicode="&#xa9;" horiz-adv-x="646" 
d="M601 350c0 -96 -21.667 -177.333 -65 -244c-50.667 -78 -121.667 -117 -213 -117s-162.333 39 -213 117c-43.333 66.667 -65 148 -65 244s21.667 177.333 65 244c50.667 78 121.667 117 213 117s162.333 -39 213 -117c43.333 -66.667 65 -148 65 -244zM543 349
c0 81.333 -16.002 149.666 -48.002 204.999c-39.333 68 -96.666 102 -171.999 102s-132.666 -33.667 -171.999 -101c-32 -54.667 -48 -122.667 -48 -204s16.333 -149.666 49 -204.999c40 -68 97.667 -102 173 -102s132.333 33.667 171 101c31.333 54.667 47 122.667 47 204z
M427.998 250c-14 -68 -48.999 -102 -104.999 -102c-77.333 0 -116 68 -116 204c0 52 7 95.333 21 130c20 49.333 52.333 74 97 74c57.333 0 91.666 -32.333 102.999 -97l-58 -14c-7.33301 34.667 -23 52 -47 52c-38 0 -57 -48 -57 -144c0 -97.333 20.333 -146 61 -146
c22 0 38 20 48 60z" />
    <glyph glyph-name="ordfeminine" unicode="&#xaa;" horiz-adv-x="378" 
d="M323 277h-78v29c-21.333 -25.333 -50.333 -38 -87 -38c-38 0 -67.333 14.667 -88 44c-18.667 26 -28 58.667 -28 98c0 44 12.167 78.333 36.5 103s58.5 37 102.5 37c22.667 0 44 -4.66699 64 -14v41c0 40.667 -18.333 61 -55 61c-26.667 0 -54.334 -9 -83.001 -27l-33 59
c41.333 27.333 81.333 41 120 41c46.667 0 79.834 -9.5 99.501 -28.5s29.5 -51.833 29.5 -98.5v-307zM245 378l-0.000976562 85c-17.333 10.667 -38.666 16 -63.999 16c-40.667 0 -61 -22.333 -61 -67c0 -49.333 17.667 -74 53 -74c33.333 0 57.333 13.333 72 40z" />
    <glyph glyph-name="guillemotleft" unicode="&#xab;" horiz-adv-x="490" 
d="M445 0h-98l-135 262l135 263h98l-130 -262zM253 0h-98l-135 262l135 263h98l-130 -262z" />
    <glyph glyph-name="logicalnot" unicode="&#xac;" horiz-adv-x="550" 
d="M530 346l-179 -126c-4.66699 -2.66699 -8.66699 -4 -12 -4c-2.66699 0 -5 0.666992 -7 2c-8 6 -10.667 13.667 -8 23l18 57h-297v96h297l-18 58c-2.66699 8.66699 0 16 8 22c6 2.66699 12.333 1.66699 19 -3z" />
    <glyph glyph-name="minus" unicode="&#xad;" horiz-adv-x="750" 
d="M730 346l-178.999 -124.998c-4 -2 -7.33301 -3 -10 -3c-2 0 -4 0.333008 -6 1c-6.66699 5.33301 -8.66699 12 -6 20l19 61h-127v-137l63 20c6.66699 2 12.667 0 18 -6c2.66699 -4.66699 1.66699 -10.334 -3 -17.001l-124 -178l-126 178c-2 4.66699 -3 8.66699 -3 12
c0 2 0.333008 3.66699 1 5c4 5.33301 8.33301 8 13 8c2.66699 0 5 -0.666992 7 -2l62 -20v137h-127l19 -61c2 -7.33301 -0.333008 -14 -7 -20c-1.33301 -0.666992 -3 -1 -5 -1c-3.33301 0 -7.33301 1 -12 3l-177 125l179 125c6 4 11 5 15 3c6.66699 -6 9 -12.333 7 -19
l-19 -63h127v134l-62 -19c-2 -0.666992 -4 -1 -6 -1c-4.66699 0 -9.33398 2.66699 -14.001 8c-0.666992 2 -1 4 -1 6c0 3.33301 1 7 3 11l126 177l124 -178c4 -6 5 -11.333 3 -16c-5.33301 -6.66699 -11.333 -9 -18 -7l-63 19v-134h127l-19 63c-2 7.33301 0 13.666 6 18.999
c4.66699 2 10 1 16 -3z" />
    <glyph glyph-name="minus" unicode="&#x2212;" horiz-adv-x="750" 
d="M730 346l-178.999 -124.998c-4 -2 -7.33301 -3 -10 -3c-2 0 -4 0.333008 -6 1c-6.66699 5.33301 -8.66699 12 -6 20l19 61h-127v-137l63 20c6.66699 2 12.667 0 18 -6c2.66699 -4.66699 1.66699 -10.334 -3 -17.001l-124 -178l-126 178c-2 4.66699 -3 8.66699 -3 12
c0 2 0.333008 3.66699 1 5c4 5.33301 8.33301 8 13 8c2.66699 0 5 -0.666992 7 -2l62 -20v137h-127l19 -61c2 -7.33301 -0.333008 -14 -7 -20c-1.33301 -0.666992 -3 -1 -5 -1c-3.33301 0 -7.33301 1 -12 3l-177 125l179 125c6 4 11 5 15 3c6.66699 -6 9 -12.333 7 -19
l-19 -63h127v134l-62 -19c-2 -0.666992 -4 -1 -6 -1c-4.66699 0 -9.33398 2.66699 -14.001 8c-0.666992 2 -1 4 -1 6c0 3.33301 1 7 3 11l126 177l124 -178c4 -6 5 -11.333 3 -16c-5.33301 -6.66699 -11.333 -9 -18 -7l-63 19v-134h127l-19 63c-2 7.33301 0 13.666 6 18.999
c4.66699 2 10 1 16 -3z" />
    <glyph glyph-name="registered" unicode="&#xae;" horiz-adv-x="646" 
d="M601 350c0 -96 -21.667 -177.333 -65 -244c-50.667 -78 -121.667 -117 -213 -117s-162.333 39 -213 117c-43.333 66.667 -65 148 -65 244s21.667 177.333 65 244c50.667 78 121.667 117 213 117s162.333 -39 213 -117c43.333 -66.667 65 -148 65 -244zM543 349
c0 81.333 -16.002 149.666 -48.002 204.999c-39.333 68 -96.666 102 -171.999 102s-132.666 -33.667 -171.999 -101c-32 -54.667 -48 -122.667 -48 -204s16.333 -149.666 49 -204.999c40 -68 97.667 -102 173 -102s132.333 33.667 171 101c31.333 54.667 47 122.667 47 204z
M446.998 443c0 -50.667 -21 -84.667 -63 -102l62 -180h-64l-58 169h-42v-169h-58v394h111c34.667 0 62 -9.83301 82 -29.5s30 -47.167 30 -82.5zM386.998 443c0 36.667 -18 55 -54 55h-51v-112h49c37.333 0 56 19 56 57z" />
    <glyph glyph-name="macron" unicode="&#xaf;" 
d="M330 610h-260v85h260v-85z" />
    <glyph glyph-name="macron" unicode="&#x2c9;" 
d="M330 610h-260v85h260v-85z" />
    <glyph glyph-name="degree" unicode="&#xb0;" 
d="M368 544c0 -48 -16 -88.167 -48 -120.5s-72 -48.5 -120 -48.5s-88 16.167 -120 48.5s-48 72.5 -48 120.5c0 46.667 16.333 86.167 49 118.5s72.334 48.5 119.001 48.5c47.333 0 87.166 -16 119.499 -48s48.5 -71.667 48.5 -119zM289 544c0 24.667 -8.66699 45.667 -26 63
s-38.333 26 -63 26s-45.667 -8.66699 -63 -26s-26 -38.333 -26 -63c0 -25.333 8.5 -46.833 25.5 -64.5s38.167 -26.5 63.5 -26.5s46.5 8.83301 63.5 26.5s25.5 39.167 25.5 64.5z" />
    <glyph glyph-name="plusminus" unicode="&#xb1;" horiz-adv-x="750" 
d="M730 346l-178.999 -124.998c-4 -2 -7.33301 -3 -10 -3c-2 0 -4 0.333008 -6 1c-6.66699 5.33301 -8.66699 12 -6 20l19 61h-127v-137l63 20c6.66699 2 12.667 0 18 -6c2.66699 -4.66699 1.66699 -10.334 -3 -17.001l-124 -178l-126 178c-2 4.66699 -3 8.66699 -3 12
c0 2 0.333008 3.66699 1 5c4 5.33301 8.33301 8 13 8c2.66699 0 5 -0.666992 7 -2l62 -20v137h-127l19 -61c2 -7.33301 -0.333008 -14 -7 -20c-1.33301 -0.666992 -3 -1 -5 -1c-3.33301 0 -7.33301 1 -12 3l-177 125l179 125c6 4 11 5 15 3c6.66699 -6 9 -12.333 7 -19
l-19 -63h127v134l-62 -19c-2 -0.666992 -4 -1 -6 -1c-4.66699 0 -9.33398 2.66699 -14.001 8c-0.666992 2 -1 4 -1 6c0 3.33301 1 7 3 11l126 177l124 -178c4 -6 5 -11.333 3 -16c-5.33301 -6.66699 -11.333 -9 -18 -7l-63 19v-134h127l-19 63c-2 7.33301 0 13.666 6 18.999
c4.66699 2 10 1 16 -3z" />
    <glyph glyph-name="twosuperior" unicode="&#xb2;" horiz-adv-x="750" 
d="M730 346l-178.999 -124.998c-4 -2 -7.33301 -3 -10 -3c-2 0 -4 0.333008 -6 1c-6.66699 5.33301 -8.66699 12 -6 20l19 61h-127v-137l63 20c6.66699 2 12.667 0 18 -6c2.66699 -4.66699 1.66699 -10.334 -3 -17.001l-124 -178l-126 178c-2 4.66699 -3 8.66699 -3 12
c0 2 0.333008 3.66699 1 5c4 5.33301 8.33301 8 13 8c2.66699 0 5 -0.666992 7 -2l62 -20v137h-127l19 -61c2 -7.33301 -0.333008 -14 -7 -20c-1.33301 -0.666992 -3 -1 -5 -1c-3.33301 0 -7.33301 1 -12 3l-177 125l179 125c6 4 11 5 15 3c6.66699 -6 9 -12.333 7 -19
l-19 -63h127v134l-62 -19c-2 -0.666992 -4 -1 -6 -1c-4.66699 0 -9.33398 2.66699 -14.001 8c-0.666992 2 -1 4 -1 6c0 3.33301 1 7 3 11l126 177l124 -178c4 -6 5 -11.333 3 -16c-5.33301 -6.66699 -11.333 -9 -18 -7l-63 19v-134h127l-19 63c-2 7.33301 0 13.666 6 18.999
c4.66699 2 10 1 16 -3z" />
    <glyph glyph-name="threesuperior" unicode="&#xb3;" horiz-adv-x="750" 
d="M730 346l-178.999 -124.998c-4 -2 -7.33301 -3 -10 -3c-2 0 -4 0.333008 -6 1c-6.66699 5.33301 -8.66699 12 -6 20l19 61h-127v-137l63 20c6.66699 2 12.667 0 18 -6c2.66699 -4.66699 1.66699 -10.334 -3 -17.001l-124 -178l-126 178c-2 4.66699 -3 8.66699 -3 12
c0 2 0.333008 3.66699 1 5c4 5.33301 8.33301 8 13 8c2.66699 0 5 -0.666992 7 -2l62 -20v137h-127l19 -61c2 -7.33301 -0.333008 -14 -7 -20c-1.33301 -0.666992 -3 -1 -5 -1c-3.33301 0 -7.33301 1 -12 3l-177 125l179 125c6 4 11 5 15 3c6.66699 -6 9 -12.333 7 -19
l-19 -63h127v134l-62 -19c-2 -0.666992 -4 -1 -6 -1c-4.66699 0 -9.33398 2.66699 -14.001 8c-0.666992 2 -1 4 -1 6c0 3.33301 1 7 3 11l126 177l124 -178c4 -6 5 -11.333 3 -16c-5.33301 -6.66699 -11.333 -9 -18 -7l-63 19v-134h127l-19 63c-2 7.33301 0 13.666 6 18.999
c4.66699 2 10 1 16 -3z" />
    <glyph glyph-name="acute" unicode="&#xb4;" 
d="M330 755l-145 -160h-82l92 160h135z" />
    <glyph glyph-name="mu" unicode="&#xb5;" horiz-adv-x="700" 
d="M680 346l-179 -126c-4.66699 -2.66699 -8.66699 -4 -12 -4c-2.66699 0 -5 0.666992 -7 2c-8 6 -10.667 13.667 -8 23l18 57h-284l18 -57c2.66699 -9.33301 0 -17 -8 -23c-2 -1.33301 -4 -2 -6 -2c-4 0 -8.33301 1.33301 -13 4l-179 126l179 125
c6.66699 4.66699 13 5.66699 19 3c8 -6 10.667 -13.333 8 -22l-18 -58h284l-18 58c-2.66699 8.66699 0 16 8 22c6 2.66699 12.333 1.66699 19 -3z" />
    <glyph glyph-name="mu" unicode="&#x3bc;" horiz-adv-x="700" 
d="M680 346l-179 -126c-4.66699 -2.66699 -8.66699 -4 -12 -4c-2.66699 0 -5 0.666992 -7 2c-8 6 -10.667 13.667 -8 23l18 57h-284l18 -57c2.66699 -9.33301 0 -17 -8 -23c-2 -1.33301 -4 -2 -6 -2c-4 0 -8.33301 1.33301 -13 4l-179 126l179 125
c6.66699 4.66699 13 5.66699 19 3c8 -6 10.667 -13.333 8 -22l-18 -58h284l-18 58c-2.66699 8.66699 0 16 8 22c6 2.66699 12.333 1.66699 19 -3z" />
    <glyph glyph-name="paragraph" unicode="&#xb6;" horiz-adv-x="607" 
d="M542 -185h-95v789h-79v-789h-95v470h-35c-59.333 0 -106.833 19 -142.5 57s-53.5 87 -53.5 147c0 62.667 18.167 113.5 54.5 152.5s85.5 58.5 147.5 58.5h298v-885z" />
    <glyph glyph-name="periodcentered" unicode="&#xb7;" horiz-adv-x="232" 
d="M186 367c0 -19.333 -6.83301 -35.833 -20.5 -49.5s-30.167 -20.5 -49.5 -20.5s-35.833 6.83301 -49.5 20.5s-20.5 30.167 -20.5 49.5s6.83301 36 20.5 50s30.167 21 49.5 21s35.833 -7 49.5 -21s20.5 -30.667 20.5 -50z" />
    <glyph glyph-name="periodcentered" unicode="&#x2219;" horiz-adv-x="232" 
d="M186 367c0 -19.333 -6.83301 -35.833 -20.5 -49.5s-30.167 -20.5 -49.5 -20.5s-35.833 6.83301 -49.5 20.5s-20.5 30.167 -20.5 49.5s6.83301 36 20.5 50s30.167 21 49.5 21s35.833 -7 49.5 -21s20.5 -30.667 20.5 -50z" />
    <glyph glyph-name="cedilla" unicode="&#xb8;" 
d="M310 -110c0 -55.333 -35.666 -83 -106.999 -83c-34.667 0 -68.334 9.66699 -101.001 29l20 32c22 -11.333 46.333 -17 73 -17c32.667 0 49 12 49 36c0 22 -8.66699 33 -26 33c-12 0 -24.333 -4 -37 -12l-32 13l19 91h47l-11 -60c10 6 24 9 42 9
c42.667 0 64 -23.667 64 -71z" />
    <glyph glyph-name="onesuperior" unicode="&#xb9;" horiz-adv-x="829" 
d="M462 0h-80l-169 375l-49 115c1.33301 -34.667 2 -81.334 2 -140.001v-350h-96v700h98l151 -333l49 -115c-1.33301 34.667 -2 81.334 -2 140.001v308h96v-700zM779 397c0 -48 -10.667 -86.667 -32 -116c-24 -33.333 -59 -50 -105 -50s-80.667 16.667 -104 50
c-21.333 29.333 -32 68 -32 116s10.667 86.667 32 116c23.333 33.333 58 50 104 50s81 -16.667 105 -50c21.333 -29.333 32 -68 32 -116zM682 397c0 51.333 -13.333 77 -40 77c-26 0 -39 -25.667 -39 -77c0 -52 13 -78 39 -78c26.667 0 40 26 40 78zM760 0h-232v128h232
v-128z" />
    <glyph glyph-name="ordmasculine" unicode="&#xba;" horiz-adv-x="384" 
d="M345 491c0 -61.333 -10.667 -111.333 -32 -150c-26.667 -48.667 -68 -73 -124 -73c-54 0 -94 24.333 -120 73c-20 38 -30 86.667 -30 146c0 62 10 112 30 150c26 49.333 67.333 74 124 74c55.333 0 96 -24.333 122 -73c20 -37.333 30 -86.333 30 -147zM266 489
c0 98 -25 147.001 -75 147.001c-49.333 0 -74 -49 -74 -147s25 -147 75 -147c28 0 48.333 18.667 61 56c8.66699 25.333 13 55.666 13 90.999z" />
    <glyph glyph-name="guillemotright" unicode="&#xbb;" horiz-adv-x="490" 
d="M470 263l-135 -263h-98l130 262l-130 263h98zM278 263l-135 -263h-98l130 262l-130 263h98z" />
    <glyph glyph-name="onequarter" unicode="&#xbc;" horiz-adv-x="750" 
d="M730 346l-178.999 -124.998c-4 -2 -7.33301 -3 -10 -3c-2 0 -4 0.333008 -6 1c-6.66699 5.33301 -8.66699 12 -6 20l19 61h-127v-137l63 20c6.66699 2 12.667 0 18 -6c2.66699 -4.66699 1.66699 -10.334 -3 -17.001l-124 -178l-126 178c-2 4.66699 -3 8.66699 -3 12
c0 2 0.333008 3.66699 1 5c4 5.33301 8.33301 8 13 8c2.66699 0 5 -0.666992 7 -2l62 -20v137h-127l19 -61c2 -7.33301 -0.333008 -14 -7 -20c-1.33301 -0.666992 -3 -1 -5 -1c-3.33301 0 -7.33301 1 -12 3l-177 125l179 125c6 4 11 5 15 3c6.66699 -6 9 -12.333 7 -19
l-19 -63h127v134l-62 -19c-2 -0.666992 -4 -1 -6 -1c-4.66699 0 -9.33398 2.66699 -14.001 8c-0.666992 2 -1 4 -1 6c0 3.33301 1 7 3 11l126 177l124 -178c4 -6 5 -11.333 3 -16c-5.33301 -6.66699 -11.333 -9 -18 -7l-63 19v-134h127l-19 63c-2 7.33301 0 13.666 6 18.999
c4.66699 2 10 1 16 -3z" />
    <glyph glyph-name="onehalf" unicode="&#xbd;" horiz-adv-x="750" 
d="M730 346l-178.999 -124.998c-4 -2 -7.33301 -3 -10 -3c-2 0 -4 0.333008 -6 1c-6.66699 5.33301 -8.66699 12 -6 20l19 61h-127v-137l63 20c6.66699 2 12.667 0 18 -6c2.66699 -4.66699 1.66699 -10.334 -3 -17.001l-124 -178l-126 178c-2 4.66699 -3 8.66699 -3 12
c0 2 0.333008 3.66699 1 5c4 5.33301 8.33301 8 13 8c2.66699 0 5 -0.666992 7 -2l62 -20v137h-127l19 -61c2 -7.33301 -0.333008 -14 -7 -20c-1.33301 -0.666992 -3 -1 -5 -1c-3.33301 0 -7.33301 1 -12 3l-177 125l179 125c6 4 11 5 15 3c6.66699 -6 9 -12.333 7 -19
l-19 -63h127v134l-62 -19c-2 -0.666992 -4 -1 -6 -1c-4.66699 0 -9.33398 2.66699 -14.001 8c-0.666992 2 -1 4 -1 6c0 3.33301 1 7 3 11l126 177l124 -178c4 -6 5 -11.333 3 -16c-5.33301 -6.66699 -11.333 -9 -18 -7l-63 19v-134h127l-19 63c-2 7.33301 0 13.666 6 18.999
c4.66699 2 10 1 16 -3z" />
    <glyph glyph-name="threequarters" unicode="&#xbe;" horiz-adv-x="750" 
d="M730 346l-178.999 -124.998c-4 -2 -7.33301 -3 -10 -3c-2 0 -4 0.333008 -6 1c-6.66699 5.33301 -8.66699 12 -6 20l19 61h-127v-137l63 20c6.66699 2 12.667 0 18 -6c2.66699 -4.66699 1.66699 -10.334 -3 -17.001l-124 -178l-126 178c-2 4.66699 -3 8.66699 -3 12
c0 2 0.333008 3.66699 1 5c4 5.33301 8.33301 8 13 8c2.66699 0 5 -0.666992 7 -2l62 -20v137h-127l19 -61c2 -7.33301 -0.333008 -14 -7 -20c-1.33301 -0.666992 -3 -1 -5 -1c-3.33301 0 -7.33301 1 -12 3l-177 125l179 125c6 4 11 5 15 3c6.66699 -6 9 -12.333 7 -19
l-19 -63h127v134l-62 -19c-2 -0.666992 -4 -1 -6 -1c-4.66699 0 -9.33398 2.66699 -14.001 8c-0.666992 2 -1 4 -1 6c0 3.33301 1 7 3 11l126 177l124 -178c4 -6 5 -11.333 3 -16c-5.33301 -6.66699 -11.333 -9 -18 -7l-63 19v-134h127l-19 63c-2 7.33301 0 13.666 6 18.999
c4.66699 2 10 1 16 -3z" />
    <glyph glyph-name="questiondown" unicode="&#xbf;" horiz-adv-x="451" 
d="M314 643c0 -19.333 -6.5 -35.666 -19.5 -48.999s-29.167 -20 -48.5 -20s-35.5 6.66699 -48.5 20s-19.5 29.666 -19.5 48.999s6.5 35.5 19.5 48.5s29.167 19.5 48.5 19.5s35.5 -6.5 48.5 -19.5s19.5 -29.167 19.5 -48.5zM433 84c-63.333 -63.333 -132.667 -95 -208 -95
c-56.667 0 -101.667 15 -135 45s-50 73 -50 129c0 43.333 10 80 30 110c15.333 23.333 40 46.333 74 69c24.667 16.667 40.334 36 47.001 58c5.33301 17.333 8 50 8 98h101c0 -62.667 -5.33301 -107.667 -16 -135c-12.667 -32.667 -41.334 -63.667 -86.001 -93
c-38 -25.333 -57 -58 -57 -98c0 -56 29.333 -84 88 -84c44 0 91.333 23 142 69z" />
    <glyph glyph-name="Agrave" unicode="&#xc0;" horiz-adv-x="494" 
d="M469 0h-107l-41 185h-152l-40 -185h-104l172 700h101zM301 278l-26 118c-4.66699 22 -14.667 73 -30 153c-5.33301 -28.667 -15.333 -79.667 -30 -153l-26 -118h112z" />
    <glyph glyph-name="Aacute" unicode="&#xc1;" horiz-adv-x="497" 
d="M452 211c0 -64.667 -16.333 -115.333 -49 -152c-34.667 -39.333 -83.667 -59 -147 -59h-186v700h349v-95h-252v-190h80c64.667 0 115 -18 151 -54s54 -86 54 -150zM352 211.001c0 73.333 -35.667 110 -107 110h-78v-226h88c64.667 0 97 38.667 97 116z" />
    <glyph glyph-name="Acircumflex" unicode="&#xc2;" horiz-adv-x="497" 
d="M452 211c0 -64.667 -16.333 -115.332 -49 -151.999c-34.667 -39.333 -83.667 -59 -147 -59h-186v700h176c60.667 0 108.167 -15.667 142.5 -47s51.5 -77.333 51.5 -138c0 -30.667 -7 -59.334 -21 -86.001s-34.333 -46.334 -61 -59.001
c31.333 -11.333 55.333 -32.666 72 -63.999c14.667 -27.333 22 -59 22 -95zM340 512.002c0 62 -30.332 93 -90.999 93h-82v-190h80c29.333 0 52.166 8.66699 68.499 26s24.5 41 24.5 71zM352.001 211.002c0 73.333 -35.667 110 -107 110h-78v-226h88
c64.667 0 97 38.667 97 116z" />
    <glyph glyph-name="Atilde" unicode="&#xc3;" horiz-adv-x="432" 
d="M70 0v700h329v-95h-231v-605h-98z" />
    <glyph glyph-name="Adieresis" unicode="&#xc4;" horiz-adv-x="615" 
d="M568 -94h-95v94h-324v-94h-96l-1 196h33c29.333 12 44 84.333 44 217v379l396 2l-1 -598h43zM427 96v506h-195l1 -369c0 -18.667 -3.33301 -43.667 -10 -75s-13.667 -52 -21 -62h225z" />
    <glyph glyph-name="Aring" unicode="&#xc5;" horiz-adv-x="445" 
d="M412 0h-342v700h329v-95h-231v-187h151v-94h-151v-229h244v-95z" />
    <glyph glyph-name="AE" unicode="&#xc6;" horiz-adv-x="731" 
d="M714 0h-106l-130 351l-58 -94v-257h-98v257l-58 94l-130 -351h-106l166 454l-152 246h111l115 -190l56 -99c-1.33301 29.333 -2 66.666 -2 111.999v177h98v-177c0 -45.333 -0.666992 -82.666 -2 -111.999l56 99l115 190h111l-152 -246z" />
    <glyph glyph-name="Ccedilla" unicode="&#xc7;" horiz-adv-x="465" 
d="M418 201c0 -62.667 -18.168 -113.664 -54.501 -152.997s-85.5 -59 -147.5 -59c-79.333 0 -144.333 37.333 -195 112l72 61c38.667 -52 81.334 -78 128.001 -78c32 0 56.667 11 74 33c16.667 20 25 46.333 25 79c0 84.667 -46 127 -138 127h-23v94h25
c36 0 65 9.66699 87 29s33 46.666 33 81.999c0 58.667 -28.333 88 -85 88c-30.667 0 -66.667 -19.667 -108 -59l-60 69c54.667 56.667 112 85 172 85c56.667 0 100.667 -15.833 132 -47.5s47 -75.834 47 -132.501c0 -74.667 -33 -126 -99 -154
c76.667 -24.667 115 -83.334 115 -176.001z" />
    <glyph glyph-name="Egrave" unicode="&#xc8;" horiz-adv-x="532" 
d="M70 0h80l169 375l49 115c-1.33301 -34.667 -2 -81.334 -2 -140.001v-350h96v700h-98l-151 -333l-49 -115c1.33301 34.667 2 81.334 2 140.001v308h-96v-700z" />
    <glyph glyph-name="Eacute" unicode="&#xc9;" horiz-adv-x="532" 
d="M70 0h80l169 375l49 115c-1.33301 -34.667 -2 -81.334 -2 -140.001v-350h96v700h-98l-151 -333l-49 -115c1.33301 34.667 2 81.334 2 140.001v308h-96v-700zM386 806c-10.667 -62.667 -48.999 -94 -114.999 -94c-68 0 -107 31.333 -117 94h63
c7.33301 -26.667 25.666 -40 54.999 -40c27.333 0 44.333 13.333 51 40h63z" />
    <glyph glyph-name="Ecircumflex" unicode="&#xca;" horiz-adv-x="482" 
d="M462 0l-106 -0.000976562l-130 351l-58 -94v-257h-98v700h98v-177c0 -45.333 -0.666992 -82.666 -2 -111.999l56 99l115 190h111l-152 -246z" />
    <glyph glyph-name="Edieresis" unicode="&#xcb;" horiz-adv-x="553" 
d="M482 0h-98.001v604h-196v-387c0 -74 -6.66699 -127 -20 -159c-21.333 -50 -63.666 -75 -126.999 -75v91c21.333 2 35.333 14.333 42 37c4.66699 16.667 7 52.667 7 108v481h392v-700z" />
    <glyph glyph-name="Igrave" unicode="&#xcc;" horiz-adv-x="612" 
d="M542 0h-96v282c0 79.333 0.666992 137 2 173c-12.667 -45.333 -30.667 -105.666 -54 -180.999l-90 -293l-90 293c-23.333 75.333 -41.333 135.666 -54 180.999c1.33301 -36 2 -93.667 2 -173v-282h-92v700h103l90 -291c18 -59.333 32.333 -110.333 43 -153
c22 79.333 36.667 131.333 44 156l90 288h102v-700z" />
    <glyph glyph-name="Iacute" unicode="&#xcd;" horiz-adv-x="532" 
d="M462 0h-98v324h-196v-324h-98v700h98v-280h196v280h98v-700z" />
    <glyph glyph-name="Icircumflex" unicode="&#xce;" horiz-adv-x="513" 
d="M468 351c0 -92.667 -13.001 -170 -39.001 -232c-36.667 -86.667 -94.667 -130 -174 -130s-136.666 43 -171.999 129c-25.333 62 -38 139 -38 231c0 92.667 12.667 170 38 232c36 86.667 93.667 130 173 130c80 0 138 -43 174 -129c25.333 -60.667 38 -137.667 38 -231z
M367.999 349c0 61.333 -6.00098 114 -18.001 158c-18.667 70.667 -50.667 106 -96 106c-72.667 0 -109 -87.333 -109 -262c0 -61.333 6 -114 18 -158c18.667 -70.667 50.334 -106 95.001 -106c73.333 0 110 87.333 110 262z" />
    <glyph glyph-name="Idieresis" unicode="&#xcf;" horiz-adv-x="532" 
d="M462 0h-98v604h-196v-604h-98v700h392v-700z" />
    <glyph glyph-name="Eth" unicode="&#xd0;" horiz-adv-x="478" 
d="M452 496c0 -62.667 -18.167 -113.501 -54.5 -152.501s-85.5 -58.5 -147.5 -58.5h-82v-285h-98v700h185c61.333 0 109.5 -18.667 144.5 -56s52.5 -86.666 52.5 -147.999zM351 492.999c0 74 -34.333 111 -103 111h-80v-224h83c32.667 0 58 11 76 33c16 20 24 46.667 24 80z
" />
    <glyph glyph-name="Ntilde" unicode="&#xd1;" horiz-adv-x="480" 
d="M437 166c-24.667 -118 -86.668 -176.999 -186.001 -176.999c-80 0 -137 43 -171 129c-23.333 59.333 -35 136.333 -35 231c0 93.333 12.333 170.666 37 231.999c35.333 86.667 92.666 130 171.999 130c102 0 162.667 -57 182 -171l-99 -25
c-12.667 64.667 -41.334 97 -86.001 97c-70 0 -105 -87 -105 -261c0 -62 5.66699 -114.667 17 -158c18.667 -70 50.334 -105 95.001 -105c26.667 0 47.334 11.667 62.001 35c8.66699 14 17.334 38 26.001 72z" />
    <glyph glyph-name="Ograve" unicode="&#xd2;" horiz-adv-x="422" 
d="M389 604h-129v-604h-98v604h-129v96h356v-96z" />
    <glyph glyph-name="Oacute" unicode="&#xd3;" horiz-adv-x="493" 
d="M471 700l-172.999 -386.999l-130 -313h-98l130 310l-178 390h111l62 -146c27.333 -64.667 45.666 -113.334 54.999 -146.001c8.66699 32.667 26.667 81.667 54 147l60 145h107z" />
    <glyph glyph-name="Ocircumflex" unicode="&#xd4;" horiz-adv-x="696" 
d="M661 352c0 -75.333 -13.333 -137.332 -40 -185.999c-34 -61.333 -85.333 -92 -154 -92h-69v-74h-98v74h-67c-68.667 0 -120 30.667 -154 92c-26.667 48.667 -40 110.667 -40 186c0 73.333 12.333 136 37 188c32.667 67.333 82 100.666 148 99.999l76 -1v61h97v-61l79 1
c66.667 0.666992 116 -32.666 148 -99.999c24.667 -50.667 37 -113.334 37 -188.001zM575 348.001c0 46 -6 86.332 -18 120.999c-17.333 50 -44.666 75 -81.999 75h-77v-374h75c33.333 0 59.666 22.667 78.999 68c15.333 34.667 23 71.334 23 110.001zM300 170
l-0.000976562 374.001h-75c-36 0 -63 -25.333 -81 -76c-13.333 -36.667 -19.666 -76.667 -18.999 -120c0.666992 -38.667 8.33398 -75.334 23.001 -110.001c19.333 -45.333 45.666 -68 78.999 -68h73z" />
    <glyph glyph-name="Otilde" unicode="&#xd5;" horiz-adv-x="465" 
d="M437 0h-108l-53 136c-24 61.333 -39 102.666 -45 123.999c-8 -27.333 -23 -68.666 -45 -123.999l-53 -136h-105l153 360l-143 340h108l43 -111c24 -62 39 -104 45 -126c9.33301 30.667 24.333 72.667 45 126l43 111h105l-143 -337z" />
    <glyph glyph-name="Odieresis" unicode="&#xd6;" horiz-adv-x="557" 
d="M504 102v-196h-94v94h-340v700h98v-604h196v604h98l-1 -598h43z" />
    <glyph glyph-name="multiply" unicode="&#xd7;" horiz-adv-x="532" 
d="M462 0h-97.999v251h-83c-68 0 -117.333 13.333 -148 40c-40.667 35.333 -61.334 97.333 -62.001 186l-1 223h98l1 -245c0 -40 7.66699 -67 23 -81s43 -21 83 -21h89v347h98v-700z" />
    <glyph glyph-name="Oslash" unicode="&#xd8;" horiz-adv-x="747" 
d="M684 0h-614v700h98v-604h160v604h98v-604h160v604h98v-700z" />
    <glyph glyph-name="Ugrave" unicode="&#xd9;" horiz-adv-x="770" 
d="M725 102v-196h-94v94h-561v700h98v-604h160v604h98v-604h160v604h98l-2 -598h43z" />
    <glyph glyph-name="Uacute" unicode="&#xda;" horiz-adv-x="562" 
d="M514 211c0 -64.667 -16.333 -115.333 -49 -152c-34.667 -39.333 -83.667 -59 -147 -59h-186l1 603h-73v96h169v-284h80c73.333 0 128 -24.333 164 -73c27.333 -37.333 41 -81 41 -131zM414 211.001c0 73.333 -35.667 110 -107 110h-78v-226h88c64.667 0 97 38.667 97 116
z" />
    <glyph glyph-name="Ucircumflex" unicode="&#xdb;" horiz-adv-x="642" 
d="M452 211c0 -64.667 -16.333 -115.333 -49 -152c-34.667 -39.333 -83.667 -59 -147 -59h-186v700l97 -1v-284h80c73.333 0 128 -24.333 164 -73c27.333 -37.333 41 -81 41 -131zM352 211.001c0 73.333 -35.667 110 -107 110h-78v-226h88c64.667 0 97 38.667 97 116z
M579 0.000976562h-98v700h98v-700z" />
    <glyph glyph-name="Udieresis" unicode="&#xdc;" horiz-adv-x="497" 
d="M452 211c0 -64.667 -16.333 -115.333 -49 -152c-34.667 -39.333 -83.667 -59 -147 -59h-186v700l97 -1v-284h80c73.333 0 128 -24.333 164 -73c27.333 -37.333 41 -81 41 -131zM352 211.001c0 73.333 -35.667 110 -107 110h-78v-226h88c64.667 0 97 38.667 97 116z" />
    <glyph glyph-name="Yacute" unicode="&#xdd;" horiz-adv-x="480" 
d="M437 349c0 -94.667 -11.665 -171.667 -34.998 -231c-34 -86 -91 -129 -171 -129c-99.333 0 -161.333 59 -186 177l91 29c8.66699 -32.667 17.334 -56.334 26.001 -71.001c15.333 -24 36 -36 62 -36c66 0 103 72 111 216h-147v94h147
c-6.66699 142.667 -41.334 214 -104.001 214c-44.667 0 -73.334 -32.333 -86.001 -97l-99 25c19.333 114 80 171 182 171c79.333 0 136.666 -43.333 171.999 -130c24.667 -61.333 37 -138.666 37 -231.999z" />
    <glyph glyph-name="Thorn" unicode="&#xde;" horiz-adv-x="716" 
d="M678 351c0 -92.667 -13.002 -169.999 -39.002 -231.999c-36.667 -86.667 -94.667 -130 -174 -130c-75.333 0 -131 39.333 -167 118c-26.667 57.333 -41 129.666 -43 216.999h-87v-324h-98v700h98v-280h90c6.66699 78.667 23.334 142.667 50.001 192
c36.667 66 89.334 99 158.001 99c80 0 138 -43 174 -129c25.333 -60.667 38 -137.667 38 -231zM577.998 349.001c0 61.333 -6.00098 114 -18.001 158c-18.667 70.667 -50.667 106 -96 106c-72.667 0 -109 -87.333 -109 -262c0 -61.333 6 -114 18 -158
c18.667 -70.667 50.334 -106 95.001 -106c73.333 0 110 87.333 110 262z" />
    <glyph glyph-name="germandbls" unicode="&#xdf;" horiz-adv-x="510" 
d="M444 0h-98.001v305h-81l-106 -305h-109l112 322c-73.333 28.667 -110 90 -110 184c0 60.667 17.333 108.167 52 142.5s82.334 51.5 143.001 51.5h197v-700zM345.999 399v206h-91c-68 0 -102 -34 -102 -102c0 -69.333 34 -104 102 -104h91z" />
    <glyph glyph-name="agrave" unicode="&#xe0;" horiz-adv-x="434" 
d="M378 0h-96v36c-27.333 -31.333 -63.333 -47 -108 -47c-46.667 0 -83 18.333 -109 55c-22.667 32 -34 72.333 -34 121c0 54 15 96.167 45 126.5s72 45.5 126 45.5c29.333 0 56 -5.66699 80 -17v51c0 50 -22.667 75 -68 75c-32 0 -66.333 -11 -103 -33l-41 73
c50 33.333 100.333 50 151 50c57.333 0 97.833 -11.833 121.5 -35.5s35.5 -64.167 35.5 -121.5v-379zM282 125l-0.000976562 105c-22 13.333 -48.333 20 -79 20c-50.667 0 -76 -27.667 -76 -83c0 -60.667 22 -91 66 -91c40.667 0 70.334 16.333 89.001 49z" />
    <glyph glyph-name="aacute" unicode="&#xe1;" horiz-adv-x="456" 
d="M422 749c-4.66699 -72.667 -40 -118.332 -106 -136.999c-14 -4 -44.667 -12.333 -92 -25c-27.333 -10.667 -45 -19.334 -53 -26.001c-19.333 -16 -29 -39.667 -29 -71v-14c22.667 34 60.667 51 114 51c7.33301 0 15.333 -0.333008 24 -1
c93.333 -8.66699 140 -96 140 -262c0 -183.333 -65 -275 -195 -275c-121.333 0 -182 90.667 -182 272c0 125.333 6.66699 213.333 20 264c17.333 66 53.333 113 108 141c16 4.66699 50.333 15.667 103 33c29.333 10 47 20.333 53 31c0.666992 6 1.66699 12.333 3 19h92z
M320 262.002c0 121.333 -30.999 182 -92.999 182c-60.667 0 -91 -60.667 -91 -182c0 -120.667 30.667 -181 92 -181c35.333 0 60.666 23 75.999 69c10.667 30.667 16 68 16 112z" />
    <glyph glyph-name="acircumflex" unicode="&#xe2;" horiz-adv-x="441" 
d="M398 165c0 -49.333 -12.333 -88.667 -37 -118c-26.667 -31.333 -64 -47 -112 -47h-192v525h193c44 0 78.333 -12 103 -36s37 -58 37 -102c0 -39.333 -17 -74 -51 -104c39.333 -26.667 59 -66 59 -118zM300 366.999c0 15.333 -4 29.5 -12 42.5s-19.333 19.5 -34 19.5
l-101 -1v-123h91c15.333 0 28.5 6.5 39.5 19.5s16.5 27.167 16.5 42.5zM299 161.999c0 41.333 -17 61.667 -51 61l-95 -1v-133h95c34 0 51 24.333 51 73z" />
    <glyph glyph-name="atilde" unicode="&#xe3;" horiz-adv-x="336" 
d="M299 431h-145l-1 -431h-96v525h242v-94z" />
    <glyph glyph-name="adieresis" unicode="&#xe4;" horiz-adv-x="448" 
d="M391 46c0 -77.333 -16.332 -134.332 -48.999 -170.999s-87.667 -59.334 -165 -68.001l-27 77c54 6.66699 91 19.334 111 38.001c22.667 21.333 34 58 34 110v4c-28 -31.333 -60.667 -47 -98 -47c-105.333 0 -158 93 -158 279c0 71.333 10 129.666 30 174.999
c28 62 73 93 135 93c35.333 0 65.666 -13 90.999 -39v28h96v-479zM295.001 127.001l0.000976562 272c-20.667 31.333 -48.334 47 -83.001 47c-50.667 0 -76 -57.667 -76 -173c0 -129.333 27 -194 81 -194c32.667 0 58.667 16 78 48z" />
    <glyph glyph-name="aring" unicode="&#xe5;" horiz-adv-x="450" 
d="M411 264c0 -16 -0.333008 -27.333 -1 -34h-275c6 -99.333 39 -149 99 -149c35.333 0 67 13 95 39l59 -61c-42 -46.667 -94 -70 -156 -70c-68 0 -119 29.667 -153 89c-26.667 47.333 -40 108 -40 182c0 74.667 12.667 135.667 38 183c32 62 81.667 93 149 93
c66 0 115 -30.333 147 -91c25.333 -48 38 -108.333 38 -181zM313 313c-1.33301 34 -8 63 -20 87c-15.333 30.667 -38.333 46 -69 46c-50.667 0 -80 -44.333 -88 -133h177z" />
    <glyph glyph-name="ae" unicode="&#xe6;" horiz-adv-x="628" 
d="M607 0h-104.998l-87 245l-52 -83v-162h-96v162l-52 83l-87 -245h-105l128 343l-113 182h109l79 -143c21.333 -38 35.666 -65 42.999 -81c-1.33301 34.667 -2 72.334 -2 113.001v111h96v-111c0 -40.667 -0.666992 -78.334 -2 -113.001c7.33301 16 21.666 43 42.999 81
l79 143h109l-113 -182z" />
    <glyph glyph-name="ccedilla" unicode="&#xe7;" horiz-adv-x="441" 
d="M218 -11c-38.667 0 -71.667 12.335 -99 37.002c-20.667 18 -41.667 47.333 -63 88l70 55c26.667 -52 58.334 -79 95.001 -81c56.667 -2.66699 85 19.666 85 66.999c0 34 -13 56 -39 66h-71v82h69c26.667 8 40 29 40 63c0 23.333 -7.33301 42.666 -22 57.999
s-33.667 22 -57 20c-44.667 -4 -77.334 -30.667 -98.001 -80l-68 52c38 79.333 93 119.333 165 120c47.333 0.666992 85.333 -11.333 114 -36c32.667 -28 50 -67.333 52 -118s-16.333 -89.667 -55 -117c37.333 -18.667 56 -56.667 56 -114c0 -10.667 -1 -21 -3 -31
c-18 -87.333 -75 -131 -171 -131z" />
    <glyph glyph-name="egrave" unicode="&#xe8;" horiz-adv-x="446" 
d="M392 0h-97v320l-133 -320h-105l-1 525h97l1 -333l141 333h96z" />
    <glyph glyph-name="eacute" unicode="&#xe9;" horiz-adv-x="446" 
d="M392 0h-97v320l-133 -320h-105l-1 525h97l1 -333l141 333h96zM337 716c-10 -62.667 -48.332 -94 -114.999 -94c-67.333 0 -106.333 31.333 -117 94h63c7.33301 -26.667 25.666 -40 54.999 -40c27.333 0 44.333 13.333 51 40h63z" />
    <glyph glyph-name="ecircumflex" unicode="&#xea;" horiz-adv-x="424" 
d="M397 0l-104.999 0.000976562l-87 245l-52 -83v-162h-96v525h96v-111c0 -40.667 -0.666992 -78.334 -2 -113.001c7.33301 16 21.666 43 42.999 81l79 143h109l-113 -182z" />
    <glyph glyph-name="edieresis" unicode="&#xeb;" horiz-adv-x="472" 
d="M426 0h-96v436h-143v-247c0 -70 -7 -118 -21 -144c-20 -38.667 -61 -57.667 -123 -57v92c32 0 48 29.667 48 89l-1 356h335z" />
    <glyph glyph-name="igrave" unicode="&#xec;" horiz-adv-x="543" 
d="M397 0v282.999c-22 -63.333 -62.333 -165 -121 -305c-23.333 48.667 -64.333 150.334 -123 305.001v-283h-96l-1 525h96l124 -328l122 328h95l1 -525h-97z" />
    <glyph glyph-name="iacute" unicode="&#xed;" horiz-adv-x="446" 
d="M392 0h-97v226h-142v-226h-96l-1 525h97v-210h141v210h97z" />
    <glyph glyph-name="icircumflex" unicode="&#xee;" horiz-adv-x="456" 
d="M417 264c0 -76 -13 -137.666 -39 -184.999c-32.667 -60 -83.667 -90 -153 -90c-67.333 0 -117 30 -149 90c-24.667 47.333 -37 107.666 -37 180.999c0 76.667 12.333 138.334 37 185.001c32.667 60.667 83.667 91 153 91c68 0 118 -30 150 -90
c25.333 -46.667 38 -107.334 38 -182.001zM320 262.001c0 121.333 -30.999 182 -92.999 182c-60.667 0 -91 -60.667 -91 -182c0 -120.667 30.667 -181 92 -181c35.333 0 60.666 23 75.999 69c10.667 30.667 16 68 16 112z" />
    <glyph glyph-name="idieresis" unicode="&#xef;" horiz-adv-x="446" 
d="M392 0h-96v436h-143v-436h-96l-1 525h335z" />
    <glyph glyph-name="eth" unicode="&#xf0;" horiz-adv-x="448" 
d="M409 257c0 -71.333 -10.002 -129.667 -30.002 -175c-28 -62 -73 -93 -135 -93c-35.333 0 -65.666 13 -90.999 39v-171l-96 -50v718h96v-35c28.667 30.667 61.334 46 98.001 46c105.333 0 158 -93 158 -279zM311.998 251.999c0 129.333 -27.001 194 -81.001 194
c-32.667 0 -58.667 -16 -78 -48v-272c20.667 -31.333 48.334 -47 83.001 -47c50.667 0 76 57.667 76 173z" />
    <glyph glyph-name="ntilde" unicode="&#xf1;" horiz-adv-x="410" 
d="M375 82c-39.333 -62 -90.334 -93 -153.001 -93c-66.667 0 -115.667 30.333 -147 91c-24 46.667 -36 106.667 -36 180c0 76.667 12 138 36 184c31.333 61.333 81.666 92 150.999 92c62.667 0 112 -30.667 148 -92l-69 -60c-25.333 40 -52.666 60 -81.999 60
c-58 0 -87 -60.667 -87 -182c0 -120.667 30 -181 90 -181c28.667 0 55.334 19.333 80.001 58z" />
    <glyph glyph-name="ograve" unicode="&#xf2;" horiz-adv-x="346" 
d="M211 435v-435h-96v435h-84v91h275v-91h-95z" />
    <glyph glyph-name="oacute" unicode="&#xf3;" horiz-adv-x="434" 
d="M412 525l-207 -709.999h-94l57 185l-146 525h102l61 -249c13.333 -54.667 23.666 -102.334 30.999 -143.001c6.66699 36.667 17.334 84.667 32.001 144l62 248h102z" />
    <glyph glyph-name="ocircumflex" unicode="&#xf4;" horiz-adv-x="679" 
d="M647 257c0 -71.333 -10 -129.666 -30 -174.999c-28 -62 -73 -93 -135 -93c-35.333 0 -65.666 13 -90.999 39v-171l-96 -50v228c-28.667 -30.667 -61.334 -46 -98.001 -46c-105.333 0 -158 93 -158 279c0 71.333 10 129.666 30 174.999c28 62 73 93 135 93
c35.333 0 65.666 -13 90.999 -39v28h96v-35c28.667 30.667 61.334 46 98.001 46c105.333 0 158 -93 158 -279zM550 252c0 129.333 -27.001 194 -81.001 194c-32.667 0 -58.667 -16 -78 -48v-272c20.667 -31.333 48.334 -47 83.001 -47c50.667 0 76 57.667 76 173z
M294.999 127l0.000976562 272c-20.667 31.333 -48.334 47 -83.001 47c-50.667 0 -76 -57.667 -76 -173c0 -129.333 27 -194 81 -194c32.667 0 58.667 16 78 48z" />
    <glyph glyph-name="otilde" unicode="&#xf5;" horiz-adv-x="441" 
d="M414 0h-109l-48 111c-4 8.66699 -15.667 38.667 -35 90c-14 -37.333 -26.667 -68.333 -38 -93l-48 -108h-109l134 274l-123 251h108l38 -88c16.667 -38 28.667 -68 36 -90c6.66699 20.667 19 51.667 37 93l37 85h109l-122 -251z" />
    <glyph glyph-name="odieresis" unicode="&#xf6;" horiz-adv-x="486" 
d="M434 102v-196h-94v94h-283l-1 525h96v-436h143v436h96v-423h43z" />
    <glyph glyph-name="divide" unicode="&#xf7;" horiz-adv-x="446" 
d="M57 320l-1 205h97l1 -205c0 -22.667 5 -39.667 15 -51s19.333 -16 28 -14h97l1 270h96l1 -525h-97v162h-117c-80 0 -120.333 52.667 -121 158z" />
    <glyph glyph-name="oslash" unicode="&#xf8;" horiz-adv-x="683" 
d="M630 525v-525h-573l-1 525h96v-436h143v436h96v-436h143v436h96z" />
    <glyph glyph-name="ugrave" unicode="&#xf9;" horiz-adv-x="726" 
d="M673 102v-196h-94v94h-522l-1 525h96v-436h143v436h96v-436h143v436h96v-423h43z" />
    <glyph glyph-name="uacute" unicode="&#xfa;" horiz-adv-x="503" 
d="M454 165c0 -49.333 -12.333 -88.667 -37 -118c-26.667 -31.333 -64 -47 -112 -47h-192v438h-65v87l161 1v-221h111c38.667 0 70.667 -13.667 96 -41s38 -60.333 38 -99zM365 161.999c0 16 -6.16602 30.167 -18.499 42.5s-26.5 18.5 -42.5 18.5l-95 -1v-133h95
c19.333 0 34.666 7.66699 45.999 23c10 13.333 15 30 15 50z" />
    <glyph glyph-name="ucircumflex" unicode="&#xfb;" horiz-adv-x="588" 
d="M537 0h-96v525h96v-525zM398 165c0 -49.333 -12.333 -88.667 -37 -118c-26.667 -31.333 -64 -47 -112 -47h-192v525l96 1v-221h111c38.667 0 70.667 -13.667 96 -41s38 -60.333 38 -99zM309 161.999c0 16 -6.16602 30.167 -18.499 42.5s-26.5 18.5 -42.5 18.5l-95 -1
v-133h95c19.333 0 34.666 7.66699 45.999 23c10 13.333 15 30 15 50z" />
    <glyph glyph-name="udieresis" unicode="&#xfc;" horiz-adv-x="441" 
d="M398 165c0 -49.333 -12.333 -88.667 -37 -118c-26.667 -31.333 -64 -47 -112 -47h-192v525l96 1v-221h111c38.667 0 70.667 -13.667 96 -41s38 -60.333 38 -99zM309 161.999c0 16 -6.16602 30.167 -18.499 42.5s-26.5 18.5 -42.5 18.5l-95 -1v-133h95
c19.333 0 34.666 7.66699 45.999 23c10 13.333 15 30 15 50z" />
    <glyph glyph-name="yacute" unicode="&#xfd;" horiz-adv-x="418" 
d="M375 260c0 -73.333 -12.001 -133.333 -36.001 -180c-31.333 -60.667 -80.333 -91 -147 -91c-62.667 0 -113.667 31 -153 93l69 57c24.667 -38.667 51.334 -58 80.001 -58c52 0 81.667 46.333 89 139h-173l1 83h172c-6 94 -34.667 141 -86 141
c-29.333 0 -56.666 -20 -81.999 -60l-69 60c36 61.333 85.333 92 148 92c69.333 0 119.666 -30.667 150.999 -92c24 -46 36 -107.333 36 -184z" />
    <glyph glyph-name="thorn" unicode="&#xfe;" horiz-adv-x="646" 
d="M607 264c0 -76 -12.999 -137.666 -38.999 -184.999c-32.667 -60 -83.667 -90 -153 -90c-60.667 0 -107.334 25.333 -140.001 76c-26.667 41.333 -41.667 95 -45 161h-77v-226h-96l-1 525h97v-210h78c14 147.333 76.667 221 188 221c68 0 118 -30 150 -90
c25.333 -46.667 38 -107.334 38 -182.001zM510.001 262.001c0 121.333 -30.999 182 -92.999 182c-60.667 0 -91 -60.667 -91 -182c0 -120.667 30.667 -181 92 -181c35.333 0 60.666 23 75.999 69c10.667 30.667 16 68 16 112z" />
    <glyph glyph-name="ydieresis" unicode="&#xff;" horiz-adv-x="446" 
d="M392 0h-97v209h-47l-94 -209h-103l104 211c-74.667 16.667 -112.334 62.667 -113.001 138c-1.33301 117.333 50.334 176 155.001 176h194zM295 296v140h-86c-22 0 -39.833 -6.33301 -53.5 -19s-20.5 -30 -20.5 -52c0.666992 -46 26 -69 76 -69h84z" />
    <glyph glyph-name="dotlessi" unicode="&#x131;" horiz-adv-x="220" 
d="M158 0h-96v525h96v-525z" />
    <glyph glyph-name="Lslash" unicode="&#x141;" horiz-adv-x="428" 
d="M402 0h-322v227l-40 -33v105l40 33v368h96v-300l103 82v-105l-103 -82v-199h226v-96z" />
    <glyph glyph-name="lslash" unicode="&#x142;" horiz-adv-x="248" 
d="M214 340l-43 -35v-305h-94v237l-43 -34v105l43 34v337l94 50v-319l43 35v-105z" />
    <glyph glyph-name="OE" unicode="&#x152;" horiz-adv-x="735" 
d="M702 0h-322.001v63c-32 -49.333 -73.667 -74 -125 -74c-79.333 0 -136.666 43 -171.999 129c-25.333 62 -38 139 -38 231c0 92.667 12.667 170 38 232c36 86.667 93.667 130 173 130c60 0 101.333 -26 124 -78v67h309v-95h-231v-187h151v-94h-151v-229h244v-95z
M367.999 349c0 61.333 -6.00098 114 -18.001 158c-18.667 70.667 -50.667 106 -96 106c-72.667 0 -109 -87.333 -109 -262c0 -61.333 6 -114 18 -158c18.667 -70.667 50.334 -106 95.001 -106c73.333 0 110 87.333 110 262z" />
    <glyph glyph-name="oe" unicode="&#x153;" horiz-adv-x="725" 
d="M686 264c0 -16 -0.332031 -27.333 -0.999023 -34h-275c6 -99.333 39 -149 99 -149c35.333 0 67 13 95 39l59 -61c-42 -46.667 -94 -70 -156 -70c-66.667 0 -113.667 28.333 -141 85c-28.667 -56.667 -75.667 -85 -141 -85c-67.333 0 -117 30 -149 90
c-24.667 47.333 -37 107.666 -37 180.999c0 76.667 12.333 138.334 37 185.001c32.667 60.667 83.667 91 153 91c63.333 0 108.666 -28 135.999 -84c30 56 75.333 84 136 84c66 0 115 -30.333 147 -91c25.333 -48 38 -108.333 38 -181zM588.001 313
c-1.33301 34 -8 63 -20 87c-15.333 30.667 -38.333 46 -69 46c-50.667 0 -80 -44.333 -88 -133h177zM320.001 262c0 121.333 -30.999 182 -92.999 182c-60.667 0 -91 -60.667 -91 -182c0 -120.667 30.667 -181 92 -181c35.333 0 60.666 23 75.999 69
c10.667 30.667 16 68 16 112z" />
    <glyph glyph-name="Scaron" unicode="&#x160;" horiz-adv-x="443" 
d="M403 181c0 -59.333 -16.999 -106.169 -50.999 -140.502s-80.667 -51.5 -140 -51.5c-78.667 0 -140.334 38 -185.001 114l77 62c32.667 -52 70.667 -78 114 -78c56 0 84 29.667 84 89c0 32 -12.667 61.333 -38 88c-14 14 -40.333 34 -79 60
c-47.333 30.667 -80.666 58.667 -99.999 84c-27.333 35.333 -41 78 -41 128c0 53.333 16.167 95.833 48.5 127.5s75.166 47.5 128.499 47.5c70 0 126.667 -31.667 170 -95l-72 -64c-30 40.667 -63.667 61 -101 61c-48.667 0 -73 -24.667 -73 -74
c0 -29.333 10.667 -55.333 32 -78c12.667 -13.333 36 -31 70 -53c52 -33.333 89 -63.666 111 -90.999c30 -37.333 45 -82.666 45 -135.999zM368.001 909.997l-102 -160h-104l-102 160h78l77 -88l77 88h76z" />
    <glyph glyph-name="scaron" unicode="&#x161;" horiz-adv-x="389" 
d="M351 144c0 -50 -14.5 -88.334 -43.5 -115.001s-68.833 -40 -119.5 -40c-56.667 0 -110.334 18.667 -161.001 56l37 80c48 -30 88.667 -45 122 -45c46 0 69 19 69 57c0 17.333 -7.66699 33 -23 47c-12 10.667 -38.667 28.334 -80 53.001
c-36 20.667 -61.667 40.334 -77 59.001c-20 24.667 -30 56 -30 94c0 46.667 13.333 82.667 40 108s63.334 38 110.001 38c52.667 0 100.334 -16.333 143.001 -49l-39 -81c-36.667 26 -72 39 -106 39c-34.667 0 -52 -15.333 -52 -46c0 -19.333 10.333 -37.333 31 -54
c7.33301 -6 25.666 -17.667 54.999 -35c45.333 -26.667 76 -49.334 92 -68.001c21.333 -25.333 32 -58 32 -98zM342 754.999l-102 -160h-104l-102 160h78l77 -88l77 88h76z" />
    <glyph glyph-name="Ydieresis" unicode="&#x178;" horiz-adv-x="493" 
d="M471 700l-172.999 -386.999v-313h-98v310l-178 390h111l62 -146c27.333 -64.667 45.666 -113.334 54.999 -146.001c8.66699 32.667 26.667 81.667 54 147l60 145h107zM398.001 802.001c0 -16.667 -6.16504 -31.165 -18.498 -43.498s-26.833 -18.5 -43.5 -18.5
s-31.334 6.16699 -44.001 18.5s-19 26.833 -19 43.5c0 17.333 6.16699 32.166 18.5 44.499s27.166 18.5 44.499 18.5c16.667 0 31.167 -6.33301 43.5 -19s18.5 -27.334 18.5 -44.001zM221.003 802.003c0 -16.667 -6.16504 -31.165 -18.498 -43.498
s-26.833 -18.5 -43.5 -18.5s-31.334 6.16699 -44.001 18.5s-19 26.833 -19 43.5c0 17.333 6.16699 32.166 18.5 44.499s27.166 18.5 44.499 18.5c16.667 0 31.167 -6.33301 43.5 -19s18.5 -27.334 18.5 -44.001z" />
    <glyph glyph-name="Zcaron" unicode="&#x17d;" horiz-adv-x="460" 
d="M413 0l-371.999 0.000976562v91l200 394c23.333 46 46 88 68 126c-28 -1.33301 -61.667 -2 -101 -2h-141v91h340v-91l-201 -395c-18.667 -36.667 -41.334 -78.334 -68.001 -125.001c28 1.33301 61.667 2 101 2h174v-91zM386.001 905.001l-102 -160h-104l-102 160h78
l77 -88l77 88h76z" />
    <glyph glyph-name="zcaron" unicode="&#x17e;" horiz-adv-x="407" 
d="M361 0h-325.001v82l175 281l49 74c-12.667 -0.666992 -43.667 -1 -93 -1h-114v89h308v-81l-170 -282c-21.333 -35.333 -37.666 -60 -48.999 -74c12.667 0.666992 43.667 1 93 1h126v-89zM355.999 755l-102 -160h-104l-102 160h78l77 -88l77 88h76z" />
    <glyph glyph-name="florin" unicode="&#x192;" horiz-adv-x="340" 
d="M309 619c-16 4 -34.667 6 -56 6c-36.667 0 -55 -18.667 -55 -56v-44h96v-88h-96v-578l-96 -52v630h-53v88h53v59c0 84.667 41 127 123 127c29.333 0 57.333 -3.33301 84 -10v-82z" />
    <glyph glyph-name="circumflex" unicode="&#x2c6;" 
d="M354 595h-78l-77 88l-77 -88h-76l102 160h104z" />
    <glyph glyph-name="caron" unicode="&#x2c7;" 
d="M354 755l-102 -160h-104l-102 160h78l77 -88l77 88h76z" />
    <glyph glyph-name="breve" unicode="&#x2d8;" 
d="M355 755c-14.667 -106.667 -66.333 -160 -155 -160c-91.333 0 -142.333 53.333 -153 160h69c11.333 -53.333 40 -80 86 -80c44 0 72 26.667 84 80h69z" />
    <glyph glyph-name="dotaccent" unicode="&#x2d9;" 
d="M264 659c0 -17.333 -6.33301 -32.333 -19 -45s-27.667 -19 -45 -19s-32.5 6.33301 -45.5 19s-19.5 27.667 -19.5 45s6.5 32.5 19.5 45.5s28.167 19.5 45.5 19.5s32.333 -6.5 45 -19.5s19 -28.167 19 -45.5z" />
    <glyph glyph-name="ring" unicode="&#x2da;" 
d="M313 707c0 -32.667 -10.667 -59.5 -32 -80.5s-48.333 -31.5 -81 -31.5s-59.667 10.5 -81 31.5s-32 47.833 -32 80.5s10.667 59.667 32 81s48.333 32 81 32s59.667 -10.667 81 -32s32 -48.333 32 -81zM255 707c0 16 -5.16699 29.333 -15.5 40s-23.5 16 -39.5 16
s-29.167 -5.33301 -39.5 -16s-15.5 -24 -15.5 -40s5.16699 -29.333 15.5 -40s23.5 -16 39.5 -16s29.167 5.33301 39.5 16s15.5 24 15.5 40z" />
    <glyph glyph-name="ogonek" unicode="&#x2db;" 
d="M306 -150c-40 -28.667 -77 -43.001 -111 -43.001c-61.333 0 -92 26 -92 78c0 42 28.667 80.333 86 115h50c-39.333 -39.333 -59 -72.666 -59 -99.999s12.667 -41 38 -41c17.333 0 39.333 8 66 24z" />
    <glyph glyph-name="tilde" unicode="&#x2dc;" 
d="M370 716c0 -34.667 -7.00098 -63 -21.001 -85c-16.667 -27.333 -41 -41 -73 -41c-26.667 0 -62 13.333 -106 40c-13.333 8 -24.333 12 -33 12c-20 0 -31.667 -15.667 -35 -47h-66c0 34 7.33301 62.333 22 85c16.667 26 41.334 39 74.001 39c25.333 0 60 -13.333 104 -40
c13.333 -8 25 -12 35 -12c18 0 29 16.333 33 49h66z" />
    <glyph glyph-name="hungarumlaut" unicode="&#x2dd;" 
d="M424 755l-145 -160h-82l97 160h130zM234 755l-145 -160h-82l97 160h130z" />
    <glyph glyph-name="Delta" unicode="&#x394;" horiz-adv-x="550" 
d="M505 298h-297l18 -57c2.66699 -9.33301 0 -17 -8 -23c-2 -1.33301 -4 -2 -6 -2c-4 0 -8.33301 1.33301 -13 4l-179 126l179 125c6.66699 4.66699 13 5.66699 19 3c8 -6 10.667 -13.333 8 -22l-18 -58h297v-96z" />
    <glyph glyph-name="Delta" unicode="&#x2206;" horiz-adv-x="550" 
d="M505 298h-297l18 -57c2.66699 -9.33301 0 -17 -8 -23c-2 -1.33301 -4 -2 -6 -2c-4 0 -8.33301 1.33301 -13 4l-179 126l179 125c6.66699 4.66699 13 5.66699 19 3c8 -6 10.667 -13.333 8 -22l-18 -58h297v-96z" />
    <glyph glyph-name="Omega" unicode="&#x3a9;" horiz-adv-x="356" 
d="M306 515c-6 -8 -13.333 -10.667 -22 -8l-58 18v-525h-96v525l-57 -18c-9.33301 -2.66699 -17 0 -23 8c-1.33301 2 -2 4.33301 -2 7c0 3.33301 1.33301 7.33301 4 12l126 179l125 -179c4.66699 -6.66699 5.66699 -13 3 -19z" />
    <glyph glyph-name="Omega" unicode="&#x2126;" horiz-adv-x="356" 
d="M306 515c-6 -8 -13.333 -10.667 -22 -8l-58 18v-525h-96v525l-57 -18c-9.33301 -2.66699 -17 0 -23 8c-1.33301 2 -2 4.33301 -2 7c0 3.33301 1.33301 7.33301 4 12l126 179l125 -179c4.66699 -6.66699 5.66699 -13 3 -19z" />
    <glyph glyph-name="pi" unicode="&#x3c0;" horiz-adv-x="646" 
d="M601 350c0 -96 -21.667 -177.333 -65 -244c-50.667 -78 -121.667 -117 -213 -117s-162.333 39 -213 117c-43.333 66.667 -65 148 -65 244s21.667 177.333 65 244c50.667 78 121.667 117 213 117s162.333 -39 213 -117c43.333 -66.667 65 -148 65 -244zM543 349
c0 81.333 -16.002 149.666 -48.002 204.999c-39.333 68 -96.666 102 -171.999 102s-132.666 -33.667 -171.999 -101c-32 -54.667 -48 -122.667 -48 -204s16.333 -149.666 49 -204.999c40 -68 97.667 -102 173 -102s132.333 33.667 171 101c31.333 54.667 47 122.667 47 204z
M451.998 432c0 -35.333 -10.5 -64.167 -31.5 -86.5s-48.833 -33.5 -83.5 -33.5h-50v-159h-58v394h111c34 0 61.167 -10.667 81.5 -32s30.5 -49 30.5 -83zM391.998 429.999c0 40.667 -18.333 61 -55 61h-50v-123h50c36.667 0 55 20.667 55 62z" />
    <glyph glyph-name="afii10017" unicode="&#x410;" horiz-adv-x="494" 
d="M469 0h-107l-41 185h-152l-40 -185h-104l172 700h101zM301 278l-26 118c-4.66699 22 -14.667 73 -30 153c-5.33301 -28.667 -15.333 -79.667 -30 -153l-26 -118h112z" />
    <glyph glyph-name="afii10018" unicode="&#x411;" horiz-adv-x="497" 
d="M452 211c0 -64.667 -16.333 -115.333 -49 -152c-34.667 -39.333 -83.667 -59 -147 -59h-186v700h349v-95h-252v-190h80c64.667 0 115 -18 151 -54s54 -86 54 -150zM352 211.001c0 73.333 -35.667 110 -107 110h-78v-226h88c64.667 0 97 38.667 97 116z" />
    <glyph glyph-name="afii10019" unicode="&#x412;" horiz-adv-x="497" 
d="M452 211c0 -64.667 -16.333 -115.332 -49 -151.999c-34.667 -39.333 -83.667 -59 -147 -59h-186v700h176c60.667 0 108.167 -15.667 142.5 -47s51.5 -77.333 51.5 -138c0 -30.667 -7 -59.334 -21 -86.001s-34.333 -46.334 -61 -59.001
c31.333 -11.333 55.333 -32.666 72 -63.999c14.667 -27.333 22 -59 22 -95zM340 512.002c0 62 -30.332 93 -90.999 93h-82v-190h80c29.333 0 52.166 8.66699 68.499 26s24.5 41 24.5 71zM352.001 211.002c0 73.333 -35.667 110 -107 110h-78v-226h88
c64.667 0 97 38.667 97 116z" />
    <glyph glyph-name="afii10020" unicode="&#x413;" horiz-adv-x="432" 
d="M70 0v700h329v-95h-231v-605h-98z" />
    <glyph glyph-name="afii10021" unicode="&#x414;" horiz-adv-x="615" 
d="M568 -94h-95v94h-324v-94h-96l-1 196h33c29.333 12 44 84.333 44 217v379l396 2l-1 -598h43zM427 96v506h-195l1 -369c0 -18.667 -3.33301 -43.667 -10 -75s-13.667 -52 -21 -62h225z" />
    <glyph glyph-name="afii10022" unicode="&#x415;" horiz-adv-x="445" 
d="M412 0h-342v700h329v-95h-231v-187h151v-94h-151v-229h244v-95z" />
    <glyph glyph-name="afii10024" unicode="&#x416;" horiz-adv-x="731" 
d="M714 0h-106l-130 351l-58 -94v-257h-98v257l-58 94l-130 -351h-106l166 454l-152 246h111l115 -190l56 -99c-1.33301 29.333 -2 66.666 -2 111.999v177h98v-177c0 -45.333 -0.666992 -82.666 -2 -111.999l56 99l115 190h111l-152 -246z" />
    <glyph glyph-name="afii10025" unicode="&#x417;" horiz-adv-x="465" 
d="M418 201c0 -62.667 -18.168 -113.664 -54.501 -152.997s-85.5 -59 -147.5 -59c-79.333 0 -144.333 37.333 -195 112l72 61c38.667 -52 81.334 -78 128.001 -78c32 0 56.667 11 74 33c16.667 20 25 46.333 25 79c0 84.667 -46 127 -138 127h-23v94h25
c36 0 65 9.66699 87 29s33 46.666 33 81.999c0 58.667 -28.333 88 -85 88c-30.667 0 -66.667 -19.667 -108 -59l-60 69c54.667 56.667 112 85 172 85c56.667 0 100.667 -15.833 132 -47.5s47 -75.834 47 -132.501c0 -74.667 -33 -126 -99 -154
c76.667 -24.667 115 -83.334 115 -176.001z" />
    <glyph glyph-name="afii10026" unicode="&#x418;" horiz-adv-x="532" 
d="M70 0h80l169 375l49 115c-1.33301 -34.667 -2 -81.334 -2 -140.001v-350h96v700h-98l-151 -333l-49 -115c1.33301 34.667 2 81.334 2 140.001v308h-96v-700z" />
    <glyph glyph-name="afii10027" unicode="&#x419;" horiz-adv-x="532" 
d="M70 0h80l169 375l49 115c-1.33301 -34.667 -2 -81.334 -2 -140.001v-350h96v700h-98l-151 -333l-49 -115c1.33301 34.667 2 81.334 2 140.001v308h-96v-700zM386 806c-10.667 -62.667 -48.999 -94 -114.999 -94c-68 0 -107 31.333 -117 94h63
c7.33301 -26.667 25.666 -40 54.999 -40c27.333 0 44.333 13.333 51 40h63z" />
    <glyph glyph-name="afii10028" unicode="&#x41a;" horiz-adv-x="482" 
d="M462 0l-106 -0.000976562l-130 351l-58 -94v-257h-98v700h98v-177c0 -45.333 -0.666992 -82.666 -2 -111.999l56 99l115 190h111l-152 -246z" />
    <glyph glyph-name="afii10029" unicode="&#x41b;" horiz-adv-x="553" 
d="M482 0h-98.001v604h-196v-387c0 -74 -6.66699 -127 -20 -159c-21.333 -50 -63.666 -75 -126.999 -75v91c21.333 2 35.333 14.333 42 37c4.66699 16.667 7 52.667 7 108v481h392v-700z" />
    <glyph glyph-name="afii10030" unicode="&#x41c;" horiz-adv-x="612" 
d="M542 0h-96v282c0 79.333 0.666992 137 2 173c-12.667 -45.333 -30.667 -105.666 -54 -180.999l-90 -293l-90 293c-23.333 75.333 -41.333 135.666 -54 180.999c1.33301 -36 2 -93.667 2 -173v-282h-92v700h103l90 -291c18 -59.333 32.333 -110.333 43 -153
c22 79.333 36.667 131.333 44 156l90 288h102v-700z" />
    <glyph glyph-name="afii10031" unicode="&#x41d;" horiz-adv-x="532" 
d="M462 0h-98v324h-196v-324h-98v700h98v-280h196v280h98v-700z" />
    <glyph glyph-name="afii10032" unicode="&#x41e;" horiz-adv-x="513" 
d="M468 351c0 -92.667 -13.001 -170 -39.001 -232c-36.667 -86.667 -94.667 -130 -174 -130s-136.666 43 -171.999 129c-25.333 62 -38 139 -38 231c0 92.667 12.667 170 38 232c36 86.667 93.667 130 173 130c80 0 138 -43 174 -129c25.333 -60.667 38 -137.667 38 -231z
M367.999 349c0 61.333 -6.00098 114 -18.001 158c-18.667 70.667 -50.667 106 -96 106c-72.667 0 -109 -87.333 -109 -262c0 -61.333 6 -114 18 -158c18.667 -70.667 50.334 -106 95.001 -106c73.333 0 110 87.333 110 262z" />
    <glyph glyph-name="afii10033" unicode="&#x41f;" horiz-adv-x="532" 
d="M462 0h-98v604h-196v-604h-98v700h392v-700z" />
    <glyph glyph-name="afii10034" unicode="&#x420;" horiz-adv-x="478" 
d="M452 496c0 -62.667 -18.167 -113.501 -54.5 -152.501s-85.5 -58.5 -147.5 -58.5h-82v-285h-98v700h185c61.333 0 109.5 -18.667 144.5 -56s52.5 -86.666 52.5 -147.999zM351 492.999c0 74 -34.333 111 -103 111h-80v-224h83c32.667 0 58 11 76 33c16 20 24 46.667 24 80z
" />
    <glyph glyph-name="afii10035" unicode="&#x421;" horiz-adv-x="480" 
d="M437 166c-24.667 -118 -86.668 -176.999 -186.001 -176.999c-80 0 -137 43 -171 129c-23.333 59.333 -35 136.333 -35 231c0 93.333 12.333 170.666 37 231.999c35.333 86.667 92.666 130 171.999 130c102 0 162.667 -57 182 -171l-99 -25
c-12.667 64.667 -41.334 97 -86.001 97c-70 0 -105 -87 -105 -261c0 -62 5.66699 -114.667 17 -158c18.667 -70 50.334 -105 95.001 -105c26.667 0 47.334 11.667 62.001 35c8.66699 14 17.334 38 26.001 72z" />
    <glyph glyph-name="afii10036" unicode="&#x422;" horiz-adv-x="422" 
d="M389 604h-129v-604h-98v604h-129v96h356v-96z" />
    <glyph glyph-name="afii10037" unicode="&#x423;" horiz-adv-x="493" 
d="M471 700l-172.999 -386.999l-130 -313h-98l130 310l-178 390h111l62 -146c27.333 -64.667 45.666 -113.334 54.999 -146.001c8.66699 32.667 26.667 81.667 54 147l60 145h107z" />
    <glyph glyph-name="afii10038" unicode="&#x424;" horiz-adv-x="696" 
d="M661 352c0 -75.333 -13.333 -137.332 -40 -185.999c-34 -61.333 -85.333 -92 -154 -92h-69v-74h-98v74h-67c-68.667 0 -120 30.667 -154 92c-26.667 48.667 -40 110.667 -40 186c0 73.333 12.333 136 37 188c32.667 67.333 82 100.666 148 99.999l76 -1v61h97v-61l79 1
c66.667 0.666992 116 -32.666 148 -99.999c24.667 -50.667 37 -113.334 37 -188.001zM575 348.001c0 46 -6 86.332 -18 120.999c-17.333 50 -44.666 75 -81.999 75h-77v-374h75c33.333 0 59.666 22.667 78.999 68c15.333 34.667 23 71.334 23 110.001zM300 170
l-0.000976562 374.001h-75c-36 0 -63 -25.333 -81 -76c-13.333 -36.667 -19.666 -76.667 -18.999 -120c0.666992 -38.667 8.33398 -75.334 23.001 -110.001c19.333 -45.333 45.666 -68 78.999 -68h73z" />
    <glyph glyph-name="afii10039" unicode="&#x425;" horiz-adv-x="465" 
d="M437 0h-108l-53 136c-24 61.333 -39 102.666 -45 123.999c-8 -27.333 -23 -68.666 -45 -123.999l-53 -136h-105l153 360l-143 340h108l43 -111c24 -62 39 -104 45 -126c9.33301 30.667 24.333 72.667 45 126l43 111h105l-143 -337z" />
    <glyph glyph-name="afii10040" unicode="&#x426;" horiz-adv-x="557" 
d="M504 102v-196h-94v94h-340v700h98v-604h196v604h98l-1 -598h43z" />
    <glyph glyph-name="afii10041" unicode="&#x427;" horiz-adv-x="532" 
d="M462 0h-97.999v251h-83c-68 0 -117.333 13.333 -148 40c-40.667 35.333 -61.334 97.333 -62.001 186l-1 223h98l1 -245c0 -40 7.66699 -67 23 -81s43 -21 83 -21h89v347h98v-700z" />
    <glyph glyph-name="afii10042" unicode="&#x428;" horiz-adv-x="747" 
d="M684 0h-614v700h98v-604h160v604h98v-604h160v604h98v-700z" />
    <glyph glyph-name="afii10043" unicode="&#x429;" horiz-adv-x="770" 
d="M725 102v-196h-94v94h-561v700h98v-604h160v604h98v-604h160v604h98l-2 -598h43z" />
    <glyph glyph-name="afii10044" unicode="&#x42a;" horiz-adv-x="562" 
d="M514 211c0 -64.667 -16.333 -115.333 -49 -152c-34.667 -39.333 -83.667 -59 -147 -59h-186l1 603h-73v96h169v-284h80c73.333 0 128 -24.333 164 -73c27.333 -37.333 41 -81 41 -131zM414 211.001c0 73.333 -35.667 110 -107 110h-78v-226h88c64.667 0 97 38.667 97 116
z" />
    <glyph glyph-name="afii10045" unicode="&#x42b;" horiz-adv-x="642" 
d="M452 211c0 -64.667 -16.333 -115.333 -49 -152c-34.667 -39.333 -83.667 -59 -147 -59h-186v700l97 -1v-284h80c73.333 0 128 -24.333 164 -73c27.333 -37.333 41 -81 41 -131zM352 211.001c0 73.333 -35.667 110 -107 110h-78v-226h88c64.667 0 97 38.667 97 116z
M579 0.000976562h-98v700h98v-700z" />
    <glyph glyph-name="afii10046" unicode="&#x42c;" horiz-adv-x="497" 
d="M452 211c0 -64.667 -16.333 -115.333 -49 -152c-34.667 -39.333 -83.667 -59 -147 -59h-186v700l97 -1v-284h80c73.333 0 128 -24.333 164 -73c27.333 -37.333 41 -81 41 -131zM352 211.001c0 73.333 -35.667 110 -107 110h-78v-226h88c64.667 0 97 38.667 97 116z" />
    <glyph glyph-name="afii10047" unicode="&#x42d;" horiz-adv-x="480" 
d="M437 349c0 -94.667 -11.665 -171.667 -34.998 -231c-34 -86 -91 -129 -171 -129c-99.333 0 -161.333 59 -186 177l91 29c8.66699 -32.667 17.334 -56.334 26.001 -71.001c15.333 -24 36 -36 62 -36c66 0 103 72 111 216h-147v94h147
c-6.66699 142.667 -41.334 214 -104.001 214c-44.667 0 -73.334 -32.333 -86.001 -97l-99 25c19.333 114 80 171 182 171c79.333 0 136.666 -43.333 171.999 -130c24.667 -61.333 37 -138.666 37 -231.999z" />
    <glyph glyph-name="afii10048" unicode="&#x42e;" horiz-adv-x="716" 
d="M678 351c0 -92.667 -13.002 -169.999 -39.002 -231.999c-36.667 -86.667 -94.667 -130 -174 -130c-75.333 0 -131 39.333 -167 118c-26.667 57.333 -41 129.666 -43 216.999h-87v-324h-98v700h98v-280h90c6.66699 78.667 23.334 142.667 50.001 192
c36.667 66 89.334 99 158.001 99c80 0 138 -43 174 -129c25.333 -60.667 38 -137.667 38 -231zM577.998 349.001c0 61.333 -6.00098 114 -18.001 158c-18.667 70.667 -50.667 106 -96 106c-72.667 0 -109 -87.333 -109 -262c0 -61.333 6 -114 18 -158
c18.667 -70.667 50.334 -106 95.001 -106c73.333 0 110 87.333 110 262z" />
    <glyph glyph-name="afii10049" unicode="&#x42f;" horiz-adv-x="510" 
d="M444 0h-98.001v305h-81l-106 -305h-109l112 322c-73.333 28.667 -110 90 -110 184c0 60.667 17.333 108.167 52 142.5s82.334 51.5 143.001 51.5h197v-700zM345.999 399v206h-91c-68 0 -102 -34 -102 -102c0 -69.333 34 -104 102 -104h91z" />
    <glyph glyph-name="afii10065" unicode="&#x430;" horiz-adv-x="434" 
d="M378 0h-96v36c-27.333 -31.333 -63.333 -47 -108 -47c-46.667 0 -83 18.333 -109 55c-22.667 32 -34 72.333 -34 121c0 54 15 96.167 45 126.5s72 45.5 126 45.5c29.333 0 56 -5.66699 80 -17v51c0 50 -22.667 75 -68 75c-32 0 -66.333 -11 -103 -33l-41 73
c50 33.333 100.333 50 151 50c57.333 0 97.833 -11.833 121.5 -35.5s35.5 -64.167 35.5 -121.5v-379zM282 125l-0.000976562 105c-22 13.333 -48.333 20 -79 20c-50.667 0 -76 -27.667 -76 -83c0 -60.667 22 -91 66 -91c40.667 0 70.334 16.333 89.001 49z" />
    <glyph glyph-name="afii10066" unicode="&#x431;" horiz-adv-x="456" 
d="M422 749c-4.66699 -72.667 -40 -118.332 -106 -136.999c-14 -4 -44.667 -12.333 -92 -25c-27.333 -10.667 -45 -19.334 -53 -26.001c-19.333 -16 -29 -39.667 -29 -71v-14c22.667 34 60.667 51 114 51c7.33301 0 15.333 -0.333008 24 -1
c93.333 -8.66699 140 -96 140 -262c0 -183.333 -65 -275 -195 -275c-121.333 0 -182 90.667 -182 272c0 125.333 6.66699 213.333 20 264c17.333 66 53.333 113 108 141c16 4.66699 50.333 15.667 103 33c29.333 10 47 20.333 53 31c0.666992 6 1.66699 12.333 3 19h92z
M320 262.002c0 121.333 -30.999 182 -92.999 182c-60.667 0 -91 -60.667 -91 -182c0 -120.667 30.667 -181 92 -181c35.333 0 60.666 23 75.999 69c10.667 30.667 16 68 16 112z" />
    <glyph glyph-name="afii10067" unicode="&#x432;" horiz-adv-x="441" 
d="M398 165c0 -49.333 -12.333 -88.667 -37 -118c-26.667 -31.333 -64 -47 -112 -47h-192v525h193c44 0 78.333 -12 103 -36s37 -58 37 -102c0 -39.333 -17 -74 -51 -104c39.333 -26.667 59 -66 59 -118zM300 366.999c0 15.333 -4 29.5 -12 42.5s-19.333 19.5 -34 19.5
l-101 -1v-123h91c15.333 0 28.5 6.5 39.5 19.5s16.5 27.167 16.5 42.5zM299 161.999c0 41.333 -17 61.667 -51 61l-95 -1v-133h95c34 0 51 24.333 51 73z" />
    <glyph glyph-name="afii10068" unicode="&#x433;" horiz-adv-x="336" 
d="M299 431h-145l-1 -431h-96v525h242v-94z" />
    <glyph glyph-name="afii10069" unicode="&#x434;" horiz-adv-x="448" 
d="M391 46c0 -77.333 -16.332 -134.332 -48.999 -170.999s-87.667 -59.334 -165 -68.001l-27 77c54 6.66699 91 19.334 111 38.001c22.667 21.333 34 58 34 110v4c-28 -31.333 -60.667 -47 -98 -47c-105.333 0 -158 93 -158 279c0 71.333 10 129.666 30 174.999
c28 62 73 93 135 93c35.333 0 65.666 -13 90.999 -39v28h96v-479zM295.001 127.001l0.000976562 272c-20.667 31.333 -48.334 47 -83.001 47c-50.667 0 -76 -57.667 -76 -173c0 -129.333 27 -194 81 -194c32.667 0 58.667 16 78 48z" />
    <glyph glyph-name="afii10070" unicode="&#x435;" horiz-adv-x="450" 
d="M411 264c0 -16 -0.333008 -27.333 -1 -34h-275c6 -99.333 39 -149 99 -149c35.333 0 67 13 95 39l59 -61c-42 -46.667 -94 -70 -156 -70c-68 0 -119 29.667 -153 89c-26.667 47.333 -40 108 -40 182c0 74.667 12.667 135.667 38 183c32 62 81.667 93 149 93
c66 0 115 -30.333 147 -91c25.333 -48 38 -108.333 38 -181zM313 313c-1.33301 34 -8 63 -20 87c-15.333 30.667 -38.333 46 -69 46c-50.667 0 -80 -44.333 -88 -133h177z" />
    <glyph glyph-name="afii10072" unicode="&#x436;" horiz-adv-x="628" 
d="M607 0h-104.998l-87 245l-52 -83v-162h-96v162l-52 83l-87 -245h-105l128 343l-113 182h109l79 -143c21.333 -38 35.666 -65 42.999 -81c-1.33301 34.667 -2 72.334 -2 113.001v111h96v-111c0 -40.667 -0.666992 -78.334 -2 -113.001c7.33301 16 21.666 43 42.999 81
l79 143h109l-113 -182z" />
    <glyph glyph-name="afii10073" unicode="&#x437;" horiz-adv-x="441" 
d="M218 -11c-38.667 0 -71.667 12.335 -99 37.002c-20.667 18 -41.667 47.333 -63 88l70 55c26.667 -52 58.334 -79 95.001 -81c56.667 -2.66699 85 19.666 85 66.999c0 34 -13 56 -39 66h-71v82h69c26.667 8 40 29 40 63c0 23.333 -7.33301 42.666 -22 57.999
s-33.667 22 -57 20c-44.667 -4 -77.334 -30.667 -98.001 -80l-68 52c38 79.333 93 119.333 165 120c47.333 0.666992 85.333 -11.333 114 -36c32.667 -28 50 -67.333 52 -118s-16.333 -89.667 -55 -117c37.333 -18.667 56 -56.667 56 -114c0 -10.667 -1 -21 -3 -31
c-18 -87.333 -75 -131 -171 -131z" />
    <glyph glyph-name="afii10074" unicode="&#x438;" horiz-adv-x="446" 
d="M392 0h-97v320l-133 -320h-105l-1 525h97l1 -333l141 333h96z" />
    <glyph glyph-name="afii10075" unicode="&#x439;" horiz-adv-x="446" 
d="M392 0h-97v320l-133 -320h-105l-1 525h97l1 -333l141 333h96zM337 716c-10 -62.667 -48.332 -94 -114.999 -94c-67.333 0 -106.333 31.333 -117 94h63c7.33301 -26.667 25.666 -40 54.999 -40c27.333 0 44.333 13.333 51 40h63z" />
    <glyph glyph-name="afii10076" unicode="&#x43a;" horiz-adv-x="424" 
d="M397 0l-104.999 0.000976562l-87 245l-52 -83v-162h-96v525h96v-111c0 -40.667 -0.666992 -78.334 -2 -113.001c7.33301 16 21.666 43 42.999 81l79 143h109l-113 -182z" />
    <glyph glyph-name="afii10077" unicode="&#x43b;" horiz-adv-x="472" 
d="M426 0h-96v436h-143v-247c0 -70 -7 -118 -21 -144c-20 -38.667 -61 -57.667 -123 -57v92c32 0 48 29.667 48 89l-1 356h335z" />
    <glyph glyph-name="afii10078" unicode="&#x43c;" horiz-adv-x="543" 
d="M397 0v282.999c-22 -63.333 -62.333 -165 -121 -305c-23.333 48.667 -64.333 150.334 -123 305.001v-283h-96l-1 525h96l124 -328l122 328h95l1 -525h-97z" />
    <glyph glyph-name="afii10079" unicode="&#x43d;" horiz-adv-x="446" 
d="M392 0h-97v226h-142v-226h-96l-1 525h97v-210h141v210h97z" />
    <glyph glyph-name="afii10080" unicode="&#x43e;" horiz-adv-x="456" 
d="M417 264c0 -76 -13 -137.666 -39 -184.999c-32.667 -60 -83.667 -90 -153 -90c-67.333 0 -117 30 -149 90c-24.667 47.333 -37 107.666 -37 180.999c0 76.667 12.333 138.334 37 185.001c32.667 60.667 83.667 91 153 91c68 0 118 -30 150 -90
c25.333 -46.667 38 -107.334 38 -182.001zM320 262.001c0 121.333 -30.999 182 -92.999 182c-60.667 0 -91 -60.667 -91 -182c0 -120.667 30.667 -181 92 -181c35.333 0 60.666 23 75.999 69c10.667 30.667 16 68 16 112z" />
    <glyph glyph-name="afii10081" unicode="&#x43f;" horiz-adv-x="446" 
d="M392 0h-96v436h-143v-436h-96l-1 525h335z" />
    <glyph glyph-name="afii10082" unicode="&#x440;" horiz-adv-x="448" 
d="M409 257c0 -71.333 -10.002 -129.667 -30.002 -175c-28 -62 -73 -93 -135 -93c-35.333 0 -65.666 13 -90.999 39v-171l-96 -50v718h96v-35c28.667 30.667 61.334 46 98.001 46c105.333 0 158 -93 158 -279zM311.998 251.999c0 129.333 -27.001 194 -81.001 194
c-32.667 0 -58.667 -16 -78 -48v-272c20.667 -31.333 48.334 -47 83.001 -47c50.667 0 76 57.667 76 173z" />
    <glyph glyph-name="afii10083" unicode="&#x441;" horiz-adv-x="410" 
d="M375 82c-39.333 -62 -90.334 -93 -153.001 -93c-66.667 0 -115.667 30.333 -147 91c-24 46.667 -36 106.667 -36 180c0 76.667 12 138 36 184c31.333 61.333 81.666 92 150.999 92c62.667 0 112 -30.667 148 -92l-69 -60c-25.333 40 -52.666 60 -81.999 60
c-58 0 -87 -60.667 -87 -182c0 -120.667 30 -181 90 -181c28.667 0 55.334 19.333 80.001 58z" />
    <glyph glyph-name="afii10084" unicode="&#x442;" horiz-adv-x="346" 
d="M211 435v-435h-96v435h-84v91h275v-91h-95z" />
    <glyph glyph-name="afii10085" unicode="&#x443;" horiz-adv-x="434" 
d="M412 525l-207 -709.999h-94l57 185l-146 525h102l61 -249c13.333 -54.667 23.666 -102.334 30.999 -143.001c6.66699 36.667 17.334 84.667 32.001 144l62 248h102z" />
    <glyph glyph-name="afii10086" unicode="&#x444;" horiz-adv-x="679" 
d="M647 257c0 -71.333 -10 -129.666 -30 -174.999c-28 -62 -73 -93 -135 -93c-35.333 0 -65.666 13 -90.999 39v-171l-96 -50v228c-28.667 -30.667 -61.334 -46 -98.001 -46c-105.333 0 -158 93 -158 279c0 71.333 10 129.666 30 174.999c28 62 73 93 135 93
c35.333 0 65.666 -13 90.999 -39v28h96v-35c28.667 30.667 61.334 46 98.001 46c105.333 0 158 -93 158 -279zM550 252c0 129.333 -27.001 194 -81.001 194c-32.667 0 -58.667 -16 -78 -48v-272c20.667 -31.333 48.334 -47 83.001 -47c50.667 0 76 57.667 76 173z
M294.999 127l0.000976562 272c-20.667 31.333 -48.334 47 -83.001 47c-50.667 0 -76 -57.667 -76 -173c0 -129.333 27 -194 81 -194c32.667 0 58.667 16 78 48z" />
    <glyph glyph-name="afii10087" unicode="&#x445;" horiz-adv-x="441" 
d="M414 0h-109l-48 111c-4 8.66699 -15.667 38.667 -35 90c-14 -37.333 -26.667 -68.333 -38 -93l-48 -108h-109l134 274l-123 251h108l38 -88c16.667 -38 28.667 -68 36 -90c6.66699 20.667 19 51.667 37 93l37 85h109l-122 -251z" />
    <glyph glyph-name="afii10088" unicode="&#x446;" horiz-adv-x="486" 
d="M434 102v-196h-94v94h-283l-1 525h96v-436h143v436h96v-423h43z" />
    <glyph glyph-name="afii10089" unicode="&#x447;" horiz-adv-x="446" 
d="M57 320l-1 205h97l1 -205c0 -22.667 5 -39.667 15 -51s19.333 -16 28 -14h97l1 270h96l1 -525h-97v162h-117c-80 0 -120.333 52.667 -121 158z" />
    <glyph glyph-name="afii10090" unicode="&#x448;" horiz-adv-x="683" 
d="M630 525v-525h-573l-1 525h96v-436h143v436h96v-436h143v436h96z" />
    <glyph glyph-name="afii10091" unicode="&#x449;" horiz-adv-x="726" 
d="M673 102v-196h-94v94h-522l-1 525h96v-436h143v436h96v-436h143v436h96v-423h43z" />
    <glyph glyph-name="afii10092" unicode="&#x44a;" horiz-adv-x="503" 
d="M454 165c0 -49.333 -12.333 -88.667 -37 -118c-26.667 -31.333 -64 -47 -112 -47h-192v438h-65v87l161 1v-221h111c38.667 0 70.667 -13.667 96 -41s38 -60.333 38 -99zM365 161.999c0 16 -6.16602 30.167 -18.499 42.5s-26.5 18.5 -42.5 18.5l-95 -1v-133h95
c19.333 0 34.666 7.66699 45.999 23c10 13.333 15 30 15 50z" />
    <glyph glyph-name="afii10093" unicode="&#x44b;" horiz-adv-x="588" 
d="M537 0h-96v525h96v-525zM398 165c0 -49.333 -12.333 -88.667 -37 -118c-26.667 -31.333 -64 -47 -112 -47h-192v525l96 1v-221h111c38.667 0 70.667 -13.667 96 -41s38 -60.333 38 -99zM309 161.999c0 16 -6.16602 30.167 -18.499 42.5s-26.5 18.5 -42.5 18.5l-95 -1
v-133h95c19.333 0 34.666 7.66699 45.999 23c10 13.333 15 30 15 50z" />
    <glyph glyph-name="afii10094" unicode="&#x44c;" horiz-adv-x="441" 
d="M398 165c0 -49.333 -12.333 -88.667 -37 -118c-26.667 -31.333 -64 -47 -112 -47h-192v525l96 1v-221h111c38.667 0 70.667 -13.667 96 -41s38 -60.333 38 -99zM309 161.999c0 16 -6.16602 30.167 -18.499 42.5s-26.5 18.5 -42.5 18.5l-95 -1v-133h95
c19.333 0 34.666 7.66699 45.999 23c10 13.333 15 30 15 50z" />
    <glyph glyph-name="afii10095" unicode="&#x44d;" horiz-adv-x="418" 
d="M375 260c0 -73.333 -12.001 -133.333 -36.001 -180c-31.333 -60.667 -80.333 -91 -147 -91c-62.667 0 -113.667 31 -153 93l69 57c24.667 -38.667 51.334 -58 80.001 -58c52 0 81.667 46.333 89 139h-173l1 83h172c-6 94 -34.667 141 -86 141
c-29.333 0 -56.666 -20 -81.999 -60l-69 60c36 61.333 85.333 92 148 92c69.333 0 119.666 -30.667 150.999 -92c24 -46 36 -107.333 36 -184z" />
    <glyph glyph-name="afii10096" unicode="&#x44e;" horiz-adv-x="646" 
d="M607 264c0 -76 -12.999 -137.666 -38.999 -184.999c-32.667 -60 -83.667 -90 -153 -90c-60.667 0 -107.334 25.333 -140.001 76c-26.667 41.333 -41.667 95 -45 161h-77v-226h-96l-1 525h97v-210h78c14 147.333 76.667 221 188 221c68 0 118 -30 150 -90
c25.333 -46.667 38 -107.334 38 -182.001zM510.001 262.001c0 121.333 -30.999 182 -92.999 182c-60.667 0 -91 -60.667 -91 -182c0 -120.667 30.667 -181 92 -181c35.333 0 60.666 23 75.999 69c10.667 30.667 16 68 16 112z" />
    <glyph glyph-name="afii10097" unicode="&#x44f;" horiz-adv-x="446" 
d="M392 0h-97v209h-47l-94 -209h-103l104 211c-74.667 16.667 -112.334 62.667 -113.001 138c-1.33301 117.333 50.334 176 155.001 176h194zM295 296v140h-86c-22 0 -39.833 -6.33301 -53.5 -19s-20.5 -30 -20.5 -52c0.666992 -46 26 -69 76 -69h84z" />
    <glyph glyph-name="Ygrave" unicode="&#x1ef2;" horiz-adv-x="747" 
d="M631 0v-94h94v196h-43z" />
    <glyph glyph-name="endash" unicode="&#x2013;" 
d="M360 319h-320v94h320v-94z" />
    <glyph glyph-name="emdash" unicode="&#x2014;" horiz-adv-x="550" 
d="M510 319h-470v94h470v-94z" />
    <glyph glyph-name="quoteleft" unicode="&#x2018;" horiz-adv-x="242" 
d="M180 700l-13 -239h-119l67 239h65z" />
    <glyph glyph-name="quoteright" unicode="&#x2019;" horiz-adv-x="242" 
d="M194 700l-67 -239h-65l13 239h119z" />
    <glyph glyph-name="quotesinglbase" unicode="&#x201a;" horiz-adv-x="242" 
d="M194 126l-67 -239h-65l13 239h119z" />
    <glyph glyph-name="quotedblleft" unicode="&#x201c;" horiz-adv-x="457" 
d="M395 700l-13 -239h-119l67 239h65zM180 700l-13 -239h-119l67 239h65z" />
    <glyph glyph-name="quotedblright" unicode="&#x201d;" horiz-adv-x="457" 
d="M409 700l-67 -239h-65l13 239h119zM194 700l-67 -239h-65l13 239h119z" />
    <glyph glyph-name="quotedblbase" unicode="&#x201e;" horiz-adv-x="457" 
d="M409 126l-67 -239h-65l13 239h119zM194 126l-67 -239h-65l13 239h119z" />
    <glyph glyph-name="dagger" unicode="&#x2020;" horiz-adv-x="442" 
d="M410 384h-141v-484h-96v484h-141v90h141v226h96v-226h141v-90z" />
    <glyph glyph-name="daggerdbl" unicode="&#x2021;" horiz-adv-x="442" 
d="M410 127h-141v-227h-96v227h-141v90h141v167h-141v90h141v226h96v-226h141v-90h-141v-167h141v-90z" />
    <glyph glyph-name="bullet" unicode="&#x2022;" 
d="M350 366c0 -42 -14.5 -77.5 -43.5 -106.5s-64.5 -43.5 -106.5 -43.5s-77.5 14.5 -106.5 43.5s-43.5 64.5 -43.5 106.5s14.5 77.833 43.5 107.5s64.5 44.5 106.5 44.5s77.5 -14.833 106.5 -44.5s43.5 -65.5 43.5 -107.5z" />
    <glyph glyph-name="ellipsis" unicode="&#x2026;" horiz-adv-x="696" 
d="M651 60c0 -20 -6.83301 -36.833 -20.5 -50.5s-30.5 -20.5 -50.5 -20.5s-36.833 6.83301 -50.5 20.5s-20.5 30.5 -20.5 50.5s6.83301 37 20.5 51s30.5 21 50.5 21s36.833 -7 50.5 -21s20.5 -31 20.5 -51zM419 60c0 -20 -6.83301 -36.833 -20.5 -50.5
s-30.5 -20.5 -50.5 -20.5s-36.833 6.83301 -50.5 20.5s-20.5 30.5 -20.5 50.5s6.83301 37 20.5 51s30.5 21 50.5 21s36.833 -7 50.5 -21s20.5 -31 20.5 -51zM187 60c0 -20 -6.83301 -36.833 -20.5 -50.5s-30.5 -20.5 -50.5 -20.5s-36.833 6.83301 -50.5 20.5
s-20.5 30.5 -20.5 50.5s6.83301 37 20.5 51s30.5 21 50.5 21s36.833 -7 50.5 -21s20.5 -31 20.5 -51z" />
    <glyph glyph-name="perthousand" unicode="&#x2030;" horiz-adv-x="1203" 
d="M347 494c0 -59.333 -10 -108 -30 -146c-26 -48 -66 -72 -120 -72c-98 0 -147 72 -147 216c0 60 9.66699 108.667 29 146c25.333 48.667 65.333 73 120 73c98.667 0 148 -72.333 148 -217zM653 700l-369 -700h-88l369 700h88zM1160 207c0 -59.333 -10 -108 -30 -146
c-26 -48 -66 -72 -120 -72c-98 0 -147 72 -147 216c0 60 9.66699 108.667 29 146c25.333 48.667 65.333 73 120 73c98.667 0 148 -72.333 148 -217zM805 207c0 -59.333 -10 -108 -30 -146c-26 -48 -66 -72 -120 -72c-98 0 -147 72 -147 216c0 60 9.66699 108.667 29 146
c25.333 48.667 65.333 73 120 73c98.667 0 148 -72.333 148 -217zM265 492c0 94 -22.333 141 -67 141c-43.333 0 -65 -46.333 -65 -139c0 -94.667 22 -142 66 -142s66 46.667 66 140zM1078 205c0 94 -22.333 141 -67 141c-43.333 0 -65 -46.333 -65 -139
c0 -94.667 22 -142 66 -142s66 46.667 66 140zM723 205c0 94 -22.333 141 -67 141c-43.333 0 -65 -46.333 -65 -139c0 -94.667 22 -142 66 -142s66 46.667 66 140z" />
    <glyph glyph-name="guilsinglleft" unicode="&#x2039;" horiz-adv-x="298" 
d="M253 0h-98l-135 262l135 263h98l-130 -262z" />
    <glyph glyph-name="guilsinglright" unicode="&#x203a;" horiz-adv-x="298" 
d="M278 263l-135 -263h-98l130 262l-130 263h98z" />
    <glyph glyph-name="fraction" unicode="&#x2044;" horiz-adv-x="389" 
d="M441 700l-389 -700h-104l389 700h104z" />
    <glyph glyph-name="afii61352" unicode="&#x2116;" horiz-adv-x="829" 
d="M462 0h-80l-169 375l-49 115c1.33301 -34.667 2 -81.334 2 -140.001v-350h-96v700h98l151 -333l49 -115c-1.33301 34.667 -2 81.334 -2 140.001v308h96v-700zM779 397c0 -48 -10.667 -86.667 -32 -116c-24 -33.333 -59 -50 -105 -50s-80.667 16.667 -104 50
c-21.333 29.333 -32 68 -32 116s10.667 86.667 32 116c23.333 33.333 58 50 104 50s81 -16.667 105 -50c21.333 -29.333 32 -68 32 -116zM682 397c0 51.333 -13.333 77 -40 77c-26 0 -39 -25.667 -39 -77c0 -52 13 -78 39 -78c26.667 0 40 26 40 78zM760 0h-232v128h232
v-128z" />
    <glyph glyph-name="trademark" unicode="&#x2122;" horiz-adv-x="575" 
d="M220 643h-71v-336h-57v336h-73v57h201v-57zM539 307h-55.999v159v17c0.666992 10.667 1 20 1 28v44l-28 -93l-51 -164l-51 164l-27 89v-17c0.666992 -10 1 -18.667 1 -26v-42v-159h-55v393h59l51 -164l24 -82c3.33301 20.667 10.666 48.667 21.999 84l51 162h59v-393z
" />
    <glyph glyph-name="partialdiff" unicode="&#x2202;" horiz-adv-x="356" 
d="M306 185c2.66699 -6 1.66699 -12.333 -3 -19l-125 -179l-126 179c-2.66699 4.66699 -4 9 -4 13c0 2 0.666992 4 2 6c6 8 13.667 10.667 23 8l57 -18v350l-57 -18c-9.33301 -2.66699 -17 0 -23 8c-1.33301 2 -2 4.33301 -2 7c0 3.33301 1.33301 7.33301 4 12l126 179
l125 -179c4.66699 -6.66699 5.66699 -13 3 -19c-6 -8 -13.333 -10.667 -22 -8l-58 18v-350l58 18c8.66699 2.66699 16 0 22 -8z" />
    <glyph glyph-name="product" unicode="&#x220f;" horiz-adv-x="750" 
d="M730 346l-178.999 -124.998c-4 -2 -7.33301 -3 -10 -3c-2 0 -4 0.333008 -6 1c-6.66699 5.33301 -8.66699 12 -6 20l19 61h-127v-137l63 20c6.66699 2 12.667 0 18 -6c2.66699 -4.66699 1.66699 -10.334 -3 -17.001l-124 -178l-126 178c-2 4.66699 -3 8.66699 -3 12
c0 2 0.333008 3.66699 1 5c4 5.33301 8.33301 8 13 8c2.66699 0 5 -0.666992 7 -2l62 -20v137h-127l19 -61c2 -7.33301 -0.333008 -14 -7 -20c-1.33301 -0.666992 -3 -1 -5 -1c-3.33301 0 -7.33301 1 -12 3l-177 125l179 125c6 4 11 5 15 3c6.66699 -6 9 -12.333 7 -19
l-19 -63h127v134l-62 -19c-2 -0.666992 -4 -1 -6 -1c-4.66699 0 -9.33398 2.66699 -14.001 8c-0.666992 2 -1 4 -1 6c0 3.33301 1 7 3 11l126 177l124 -178c4 -6 5 -11.333 3 -16c-5.33301 -6.66699 -11.333 -9 -18 -7l-63 19v-134h127l-19 63c-2 7.33301 0 13.666 6 18.999
c4.66699 2 10 1 16 -3z" />
    <glyph glyph-name="summation" unicode="&#x2211;" horiz-adv-x="750" 
d="M730 346l-178.999 -124.998c-4 -2 -7.33301 -3 -10 -3c-2 0 -4 0.333008 -6 1c-6.66699 5.33301 -8.66699 12 -6 20l19 61h-127v-137l63 20c6.66699 2 12.667 0 18 -6c2.66699 -4.66699 1.66699 -10.334 -3 -17.001l-124 -178l-126 178c-2 4.66699 -3 8.66699 -3 12
c0 2 0.333008 3.66699 1 5c4 5.33301 8.33301 8 13 8c2.66699 0 5 -0.666992 7 -2l62 -20v137h-127l19 -61c2 -7.33301 -0.333008 -14 -7 -20c-1.33301 -0.666992 -3 -1 -5 -1c-3.33301 0 -7.33301 1 -12 3l-177 125l179 125c6 4 11 5 15 3c6.66699 -6 9 -12.333 7 -19
l-19 -63h127v134l-62 -19c-2 -0.666992 -4 -1 -6 -1c-4.66699 0 -9.33398 2.66699 -14.001 8c-0.666992 2 -1 4 -1 6c0 3.33301 1 7 3 11l126 177l124 -178c4 -6 5 -11.333 3 -16c-5.33301 -6.66699 -11.333 -9 -18 -7l-63 19v-134h127l-19 63c-2 7.33301 0 13.666 6 18.999
c4.66699 2 10 1 16 -3z" />
    <glyph glyph-name="radical" unicode="&#x221a;" horiz-adv-x="490" 
d="M475 700l-231 -700h-99l-123 340h107l29 -98c14 -48 26 -93.333 36 -136c8 31.333 21.333 78 40 140l138 454h103z" />
    <glyph glyph-name="infinity" unicode="&#x221e;" horiz-adv-x="750" 
d="M730 346l-178.999 -124.998c-4 -2 -7.33301 -3 -10 -3c-2 0 -4 0.333008 -6 1c-6.66699 5.33301 -8.66699 12 -6 20l19 61h-127v-137l63 20c6.66699 2 12.667 0 18 -6c2.66699 -4.66699 1.66699 -10.334 -3 -17.001l-124 -178l-126 178c-2 4.66699 -3 8.66699 -3 12
c0 2 0.333008 3.66699 1 5c4 5.33301 8.33301 8 13 8c2.66699 0 5 -0.666992 7 -2l62 -20v137h-127l19 -61c2 -7.33301 -0.333008 -14 -7 -20c-1.33301 -0.666992 -3 -1 -5 -1c-3.33301 0 -7.33301 1 -12 3l-177 125l179 125c6 4 11 5 15 3c6.66699 -6 9 -12.333 7 -19
l-19 -63h127v134l-62 -19c-2 -0.666992 -4 -1 -6 -1c-4.66699 0 -9.33398 2.66699 -14.001 8c-0.666992 2 -1 4 -1 6c0 3.33301 1 7 3 11l126 177l124 -178c4 -6 5 -11.333 3 -16c-5.33301 -6.66699 -11.333 -9 -18 -7l-63 19v-134h127l-19 63c-2 7.33301 0 13.666 6 18.999
c4.66699 2 10 1 16 -3z" />
    <glyph glyph-name="integral" unicode="&#x222b;" horiz-adv-x="448" 
d="M391 0l-95.998 0.000976562v35c-28.667 -30.667 -61.334 -46 -98.001 -46c-105.333 0 -158 93 -158 279c0 71.333 10 129.666 30 174.999c28 62 73 93 135 93c35.333 0 65.666 -13 90.999 -39v28h96v-525zM295.002 127.001l0.000976562 272
c-20.667 31.333 -48.334 47 -83.001 47c-50.667 0 -76 -57.667 -76 -173c0 -129.333 27 -194 81 -194c32.667 0 58.667 16 78 48z" />
    <glyph glyph-name="approxequal" unicode="&#x2248;" horiz-adv-x="356" 
d="M306 185c2.66699 -6 1.66699 -12.333 -3 -19l-125 -179l-126 179c-2.66699 4.66699 -4 9 -4 13c0 2 0.666992 4 2 6c6 8 13.667 10.667 23 8l57 -18v525h96v-525l58 18c8.66699 2.66699 16 0 22 -8z" />
    <glyph glyph-name="approxequal" unicode="&#x22f2;" horiz-adv-x="356" 
d="M306 185c2.66699 -6 1.66699 -12.333 -3 -19l-125 -179l-126 179c-2.66699 4.66699 -4 9 -4 13c0 2 0.666992 4 2 6c6 8 13.667 10.667 23 8l57 -18v525h96v-525l58 18c8.66699 2.66699 16 0 22 -8z" />
    <glyph glyph-name="notequal" unicode="&#x2260;" horiz-adv-x="750" 
d="M730 346l-178.999 -124.998c-4 -2 -7.33301 -3 -10 -3c-2 0 -4 0.333008 -6 1c-6.66699 5.33301 -8.66699 12 -6 20l19 61h-127v-137l63 20c6.66699 2 12.667 0 18 -6c2.66699 -4.66699 1.66699 -10.334 -3 -17.001l-124 -178l-126 178c-2 4.66699 -3 8.66699 -3 12
c0 2 0.333008 3.66699 1 5c4 5.33301 8.33301 8 13 8c2.66699 0 5 -0.666992 7 -2l62 -20v137h-127l19 -61c2 -7.33301 -0.333008 -14 -7 -20c-1.33301 -0.666992 -3 -1 -5 -1c-3.33301 0 -7.33301 1 -12 3l-177 125l179 125c6 4 11 5 15 3c6.66699 -6 9 -12.333 7 -19
l-19 -63h127v134l-62 -19c-2 -0.666992 -4 -1 -6 -1c-4.66699 0 -9.33398 2.66699 -14.001 8c-0.666992 2 -1 4 -1 6c0 3.33301 1 7 3 11l126 177l124 -178c4 -6 5 -11.333 3 -16c-5.33301 -6.66699 -11.333 -9 -18 -7l-63 19v-134h127l-19 63c-2 7.33301 0 13.666 6 18.999
c4.66699 2 10 1 16 -3z" />
    <glyph glyph-name="lessequal" unicode="&#x2264;" horiz-adv-x="750" 
d="M730 346l-178.999 -124.998c-4 -2 -7.33301 -3 -10 -3c-2 0 -4 0.333008 -6 1c-6.66699 5.33301 -8.66699 12 -6 20l19 61h-127v-137l63 20c6.66699 2 12.667 0 18 -6c2.66699 -4.66699 1.66699 -10.334 -3 -17.001l-124 -178l-126 178c-2 4.66699 -3 8.66699 -3 12
c0 2 0.333008 3.66699 1 5c4 5.33301 8.33301 8 13 8c2.66699 0 5 -0.666992 7 -2l62 -20v137h-127l19 -61c2 -7.33301 -0.333008 -14 -7 -20c-1.33301 -0.666992 -3 -1 -5 -1c-3.33301 0 -7.33301 1 -12 3l-177 125l179 125c6 4 11 5 15 3c6.66699 -6 9 -12.333 7 -19
l-19 -63h127v134l-62 -19c-2 -0.666992 -4 -1 -6 -1c-4.66699 0 -9.33398 2.66699 -14.001 8c-0.666992 2 -1 4 -1 6c0 3.33301 1 7 3 11l126 177l124 -178c4 -6 5 -11.333 3 -16c-5.33301 -6.66699 -11.333 -9 -18 -7l-63 19v-134h127l-19 63c-2 7.33301 0 13.666 6 18.999
c4.66699 2 10 1 16 -3z" />
    <glyph glyph-name="greaterequal" unicode="&#x2265;" horiz-adv-x="750" 
d="M730 346l-178.999 -124.998c-4 -2 -7.33301 -3 -10 -3c-2 0 -4 0.333008 -6 1c-6.66699 5.33301 -8.66699 12 -6 20l19 61h-127v-137l63 20c6.66699 2 12.667 0 18 -6c2.66699 -4.66699 1.66699 -10.334 -3 -17.001l-124 -178l-126 178c-2 4.66699 -3 8.66699 -3 12
c0 2 0.333008 3.66699 1 5c4 5.33301 8.33301 8 13 8c2.66699 0 5 -0.666992 7 -2l62 -20v137h-127l19 -61c2 -7.33301 -0.333008 -14 -7 -20c-1.33301 -0.666992 -3 -1 -5 -1c-3.33301 0 -7.33301 1 -12 3l-177 125l179 125c6 4 11 5 15 3c6.66699 -6 9 -12.333 7 -19
l-19 -63h127v134l-62 -19c-2 -0.666992 -4 -1 -6 -1c-4.66699 0 -9.33398 2.66699 -14.001 8c-0.666992 2 -1 4 -1 6c0 3.33301 1 7 3 11l126 177l124 -178c4 -6 5 -11.333 3 -16c-5.33301 -6.66699 -11.333 -9 -18 -7l-63 19v-134h127l-19 63c-2 7.33301 0 13.666 6 18.999
c4.66699 2 10 1 16 -3z" />
    <glyph glyph-name="lozenge" unicode="&#x25ca;" horiz-adv-x="750" 
d="M730 346l-178.999 -124.998c-4 -2 -7.33301 -3 -10 -3c-2 0 -4 0.333008 -6 1c-6.66699 5.33301 -8.66699 12 -6 20l19 61h-127v-137l63 20c6.66699 2 12.667 0 18 -6c2.66699 -4.66699 1.66699 -10.334 -3 -17.001l-124 -178l-126 178c-2 4.66699 -3 8.66699 -3 12
c0 2 0.333008 3.66699 1 5c4 5.33301 8.33301 8 13 8c2.66699 0 5 -0.666992 7 -2l62 -20v137h-127l19 -61c2 -7.33301 -0.333008 -14 -7 -20c-1.33301 -0.666992 -3 -1 -5 -1c-3.33301 0 -7.33301 1 -12 3l-177 125l179 125c6 4 11 5 15 3c6.66699 -6 9 -12.333 7 -19
l-19 -63h127v134l-62 -19c-2 -0.666992 -4 -1 -6 -1c-4.66699 0 -9.33398 2.66699 -14.001 8c-0.666992 2 -1 4 -1 6c0 3.33301 1 7 3 11l126 177l124 -178c4 -6 5 -11.333 3 -16c-5.33301 -6.66699 -11.333 -9 -18 -7l-63 19v-134h127l-19 63c-2 7.33301 0 13.666 6 18.999
c4.66699 2 10 1 16 -3z" />
    <glyph glyph-name="apple" unicode="&#xf000;" horiz-adv-x="750" 
d="M730 346l-178.999 -124.998c-4 -2 -7.33301 -3 -10 -3c-2 0 -4 0.333008 -6 1c-6.66699 5.33301 -8.66699 12 -6 20l19 61h-127v-137l63 20c6.66699 2 12.667 0 18 -6c2.66699 -4.66699 1.66699 -10.334 -3 -17.001l-124 -178l-126 178c-2 4.66699 -3 8.66699 -3 12
c0 2 0.333008 3.66699 1 5c4 5.33301 8.33301 8 13 8c2.66699 0 5 -0.666992 7 -2l62 -20v137h-127l19 -61c2 -7.33301 -0.333008 -14 -7 -20c-1.33301 -0.666992 -3 -1 -5 -1c-3.33301 0 -7.33301 1 -12 3l-177 125l179 125c6 4 11 5 15 3c6.66699 -6 9 -12.333 7 -19
l-19 -63h127v134l-62 -19c-2 -0.666992 -4 -1 -6 -1c-4.66699 0 -9.33398 2.66699 -14.001 8c-0.666992 2 -1 4 -1 6c0 3.33301 1 7 3 11l126 177l124 -178c4 -6 5 -11.333 3 -16c-5.33301 -6.66699 -11.333 -9 -18 -7l-63 19v-134h127l-19 63c-2 7.33301 0 13.666 6 18.999
c4.66699 2 10 1 16 -3z" />
    <glyph glyph-name="fi" unicode="&#xf001;" horiz-adv-x="505" 
d="M454 666c0 -16 -5.83301 -29.833 -17.5 -41.5s-25.5 -17.5 -41.5 -17.5c-16.667 0 -30.834 5.66699 -42.501 17s-17.5 25.333 -17.5 42s5.83301 30.834 17.5 42.501s25.834 17.5 42.501 17.5s30.667 -5.83301 42 -17.5s17 -25.834 17 -42.501zM278 636
c-12 4 -25.333 6 -40 6c-40.667 0 -61 -18.667 -61 -56v-61h86v-90h-86v-435h-96v435h-53v90h53v74c0 38.667 10.167 69.5 30.5 92.5s49.5 34.5 87.5 34.5c32 0 58.333 -3.33301 79 -10v-80zM443 0h-96v525h96v-525z" />
    <glyph glyph-name="fl" unicode="&#xf002;" horiz-adv-x="505" 
d="M443 0h-96v679l96 50v-729zM278 636c-12 4 -25.333 6 -40 6c-40.667 0 -61 -18.667 -61 -56v-61h86v-90h-86v-435h-96v435h-53v90h53v74c0 38.667 10.167 69.5 30.5 92.5s49.5 34.5 87.5 34.5c32 0 58.333 -3.33301 79 -10v-80z" />
    <glyph glyph-name="glyph1" horiz-adv-x="0" 
 />
    <glyph glyph-name="nonmarkingreturn" horiz-adv-x="220" 
 />
    <glyph glyph-name="glyph4" horiz-adv-x="220" 
 />
    <glyph glyph-name="glyph5" horiz-adv-x="220" 
 />
    <glyph glyph-name=".null" horiz-adv-x="0" 
 />
    <glyph glyph-name="glyph313" horiz-adv-x="500" 
 />
  </font>
</defs>
</svg>
